Welcome Guest ( Log In | Register )

> Astharoth - Resurrection: Beginning Of The End (2020), Thrash Metal (D)
post Apr 25 2020, 18:40:11
Post #1

Правь статус, ####!111
**************
Group: Металариец
Posts: 26,658
Releases: 19228
From: Г.Харьков
On Forums: 9 years 2 months
Thanks: 384082 time(s)
Unknown


(IMG:http://metalarea.org/images/audiocovers/2020_Apr/acov_tid336851_thumb.jpg)

*Artist: Astharoth
*Album: Resurrection: Beginning Of The End
*Year: 2020
*Genre: Thrash Metal
*Country: Poland (IMG:http://metalarea.org/forum/style_images/flags/Poland.png)
*Format: mp3@CBR320kbps
*Size: 113MB

Tracklist:
1. Resurrection 01:23 instrumental
2. Perfect Butchery 05:57
3. Denial and Hate 03:52
4. Catastrophobia 06:25
5. Between Rage and Despair 05:35
6. Mothman 05:21
7. The Man, the Myth, the Mystery 05:30
8. Lunacy by Design 03:49
9. Awaiting a Miracle 05:36
10. Beginning of the End 05:23 instrumental
******************************
Total playing time: 48:51




Extended info
Jarek Tatarek Vocals, Guitars (1988-1994), All instruments, vocals (2020-present)
See also: Arcane Dimension, Arcane Ritual, ex-Halcyon Days, ex-In the Silence (live), ex-Krater


Technical info
(IMG:http://metalarea.org/images/spectrogram/2020_Apr/2e216f0ed572d4dc0ac2a19443fdbcc9.png)
Input File: 04 - Catastrophobia.mp3
Channels : 2
Sample Rate : 44100
Precision : 16-bit
Duration : 00:06:25.59 = 17004563 samples = 28919.3 CDDA sectors
File Size : 15.6M
Bit Rate : 323k
Sample Encoding: MPEG audio (layer I, II or III)
Comments :
Title=Catastrophobia
Artist=Astharoth
Album=Resurrection: Beginning of the End
Tracknumber=4
Year=2020-04-24
Genre=Alternative / Indie Rock / Metal
Discnumber=1



Register


Go to the top of the page
  Insert nick Quick quote
+Quote Post
 
Start new topic
Replies (1 - 4)
post Apr 26 2020, 09:24:48
Post #2

Четыре Литра
****
Group: Металариец
Posts: 376
Releases: 0
From: Kyiv
On Forums: 9 years 3 months
Thanks: 154 time(s)
Ukraine


Какой-то странный трэш. Скорее, прог-трэш, но сильно невнятный по первому прослушиванию. А на второе не тянет.


Thanks:
Go to the top of the page
  Insert nick Quick quote
+Quote Post
post Apr 26 2020, 13:22:18
Post #3

Маньяк
**********
Group: Металариец
Posts: 1,000
Releases: 0
From: China
On Forums: 13 years 6 months
Thanks: 755 time(s)
Bulgaria


In the early 90's these guys produced some of the finest moments from the progressive thrash movement, on the full-length debut and the demos after it... surreal bizarre music that has to be heard to be believed. This time it's only one musician, the founder Jarek Tatarek, who is in charge of everything. This new opus is nothing special, unfortunately, modern atmospheric progressive metal which only occasionally becomes more aggressive and thrashy. Not bad, but very ordinary and unspectacular compared to the band's early exploits.


Thanks:
Go to the top of the page
  Insert nick Quick quote
+Quote Post
post Apr 29 2020, 16:27:51
Post #4

Common dweller of hell
**************
Group: Металариец
Posts: 3,873
Releases: 12
From: Dnipro
On Forums: 13 years 1 week
Thanks: 1521 time(s)
Ukraine


First album in 30 years!!!
Go to the top of the page
  Insert nick Quick quote
+Quote Post
post May 7 2020, 09:44:21
Post #5

Восемь Литров
********
Group: Металариец
Posts: 880
Releases: 0
From: South Of Heaven
On Forums: 13 years 11 months
Thanks: 420 time(s)
Ukraine


Очень хорошо, кстати, и особенно понравился финальный трек-инструменталка .
Релизёру спс! (IMG:style_emoticons/default/9.gif) (IMG:style_emoticons/default/9.gif)
Go to the top of the page
  Insert nick Quick quote
+Quote Post

Reply to this topicStart new topic
2 User(s) are reading this topic (2 Guests and 0 Anonymous Users)
0 Members:

 



- Lo-Fi Version Support form
Copyrights and abuse reports form
Time is now: 25th July 2021 - 04:00:23