Welcome Guest ( Log In | Register )

Объявления

* gmail.com упорно продолжает считать почту с нас "unsolicited" и отбивает в том числе и письма активации, поэтому просьба использовать альтернативные почтовые ящики.
------------
* gmail.com continues reject all mail from us as "unsolicited" (activation mails too) therefore please use alternate mail servers.
 
Reply to this topicStart new topic
> Carcinoid & Charnel Altar - Carcinoid​/​charnel Altar [split] (2020), Death/Doom Metal | Death/Doom Metal
post May 1 2020, 15:51:38
Post #1

Правь статус, 616
**************
Group: Металариец
Posts: 11,032
Releases: 8985
From: 55°35’N 38°08’E
On Forums: 16 years 1 week
Thanks: 159965 time(s)
Russian Federation


(IMG:http://metalarea.org/images/audiocovers/2020_May/acov_tid337096_thumb.jpg)

*Artist: Carcinoid & Charnel Altar
*Album: Carcinoid​/​charnel Altar [split]
*Year: 2020
*Genre: Death/Doom Metal | Death/Doom Metal
*Country: Australia (IMG:http://metalarea.org/forum/style_images/flags/Australia.png) | Australia (IMG:http://metalarea.org/forum/style_images/flags/Australia.png)
*Format: mp3@CBR320kbps
*Size: 44MB

Tracklist:
Carcinoid:
1.Ashen Remnants 05:44
2.Gut Rot 04:57
Charnel Altar:
3.Blood Sanctum 08:20
******************************
Total playing time: 19:01






Technical info
(IMG:http://metalarea.org/images/spectrogram/2020_May/eaa59782f61ed32144f3040374aab791.png)
Input File: 01 Carcinoid - Ashen Remnants.mp3
Channels : 2
Sample Rate : 44100
Precision : 16-bit
Duration : 00:05:44.76 = 15203916 samples = 25857 CDDA sectors
File Size : 14.0M
Bit Rate : 325k
Sample Encoding: MPEG audio (layer I, II or III)
Comments :
Title=Ashen Remnants
Artist=Carcinoid
Album=Carcinoid / Charnel Altar Split
Tracknumber=1
Year=2020
Genre=Metal



Register


Go to the top of the page
  Insert nick Quick quote
+Quote Post

Reply to this topicStart new topic
1 User(s) are reading this topic (1 Guests and 0 Anonymous Users)
0 Members:

 



- Lo-Fi Version Support form
Copyrights and abuse reports form
Time is now: 19th July 2024 - 13:55:44