Welcome Guest ( Log In | Register )

> Therion - Cover Songs 1993-2007 [compilation] (2020), Symphonic/Operatic Metal (D)
post May 1 2020, 20:22:23
Post #1

Мегаманьяк
***********
Group: Металариец
Posts: 1,745
Releases: 290
On Forums: 12 years 8 months
Thanks: 6660 time(s)
Russian Federation


(IMG:http://metalarea.org/images/audiocovers/2020_May/acov_tid337147_thumb.jpg)

*Artist: Therion
*Album: Cover Songs 1993-2007 [compilation]
*Year: 2020
*Genre: Symphonic/Operatic Metal
*Country: Sweden (IMG:http://metalarea.org/forum/style_images/flags/Sweden.png)
*Format: mp3@CBR320kbps
*Size: 98MB

Tracklist:
01. Fight Fire with Fire (2002) 04:28
02. Summernight City (2001) 04:54
03. Crying Days (2000) 04:31
04. The King (1998) 04:08
05. Witching Hour (1993) 02:49
06. Southbound (2003) 04:14
07. Green Manalishi (2004) 03:21
08. Revelations (Live 2001) 07:48
09. Iron Fist (Live 2004) 03:14
10. Black Funeral (feat. Messiah Marcolin) (Live 2007) 03:18
******************************
Total playing time: 42:45

Preview 1
Preview 2
(IMG:http://metalarea.org/images/myspace.png)
(IMG:http://metalarea.org/images/youtube.png)

Extended info






Lineup:
Christofer Johnsson Guitars (rhythm) (1988-present), Vocals (1988-2006), Bass (1991), Keyboards (1992-present), Programming (2006-present)
Sami Karppinen Drums (1998-2001, 2017-present)
Nalle Påhlsson Bass (2008-present)
Thomas Vikström Vocals, Flute (2009-present)
Christian Vidal Guitars (lead) (2010-present)
Lori Lewis Vocals (soprano) (2011-present)


Technical info
(IMG:http://metalarea.org/images/spectrogram/2020_May/00ad487eb288fec5e065858b67d2ddd1.png)
Input File: 01-Fight Fire with Fire (2002).mp3
Channels : 2
Sample Rate : 44100
Precision : 16-bit
Duration : 00:04:28.79 = 11853683 samples = 20159.3 CDDA sectors
File Size : 10.8M
Bit Rate : 320k
Sample Encoding: MPEG audio (layer I, II or III)
Comments :
Title=Fight Fire with Fire (2002)
Artist=Therion
Album=Cover Songs 1993-2007
Tracknumber=1
Year=2020
Genre=Symphonic/Operatic Metal



Register


Go to the top of the page
  Insert nick Quick quote
+Quote Post
 
Start new topic
Replies (1 - 5)
post May 2 2020, 03:26:14
Post #2

Это просто место… где все подошло к концу.
**************
Group: Металариец
Posts: 6,353
Releases: 0
From: Страны Мамонтов
On Forums: 14 years 5 months
Thanks: 2485 time(s)
Antarctica


Пестни за номерами 5-6-7 вызывают интерес
Go to the top of the page
  Insert nick Quick quote
+Quote Post
post May 2 2020, 08:33:33
Post #3

####!111
**************
Group: Металариец
Posts: 4,451
Releases: 134
From: The Mountain Of DOOM
On Forums: 13 years 9 months
Thanks: 6261 time(s)
Russian Federation


маловато каверов, с правами не договорились?

почти всё взято с Therion - Blood Of The Dragon [best of/compilation] (2018)
Go to the top of the page
  Insert nick Quick quote
+Quote Post
post May 2 2020, 15:42:09
Post #4

Правь статус, ####!111
**************
Group: Металариец
Posts: 2,583
Releases: 236
On Forums: 14 years 8 months
Thanks: 6401 time(s)
Unknown


QUOTE(Un4given @ May 2 2020, 08:33:33) *


Угу, тоже заметил, что взято 8 песен оттуда, плюс
02. Summernight City (2001) 04:54
03. Crying Days (2000) 04:31

Могли бы на худой конец ещё добавить этот кавер:


Thanks:
(1) boby9052,
Go to the top of the page
  Insert nick Quick quote
+Quote Post
post May 2 2020, 17:40:22
Post #5

Grind the Human Scum
**********
Group: Металариец
Posts: 1,056
Releases: 18
On Forums: 14 years 6 months
Thanks: 1066 time(s)
Russian Federation


после Sitra Ahra распускать надо было проект, а то последние десятилетие какое то позорище


Thanks:
Go to the top of the page
  Insert nick Quick quote
+Quote Post
post May 2 2020, 17:44:25
Post #6

Русь Понад Усе!
**************
Group: Металариец
Posts: 4,357
Releases: 15
From: Украина
On Forums: 13 years 11 months
Thanks: 1784 time(s)
Ukraine


09. Iron Fist (Live 2004) 03:14 очень мощное исполнение !!!
Go to the top of the page
  Insert nick Quick quote
+Quote Post

Reply to this topicStart new topic
2 User(s) are reading this topic (2 Guests and 0 Anonymous Users)
0 Members:

 



- Lo-Fi Version Support form
Copyrights and abuse reports form
Time is now: 4th August 2021 - 12:52:36