Welcome Guest ( Log In | Register )

 
Reply to this topicStart new topic
> Robyn Ferguson - Alizarin [ep] (2019), Instrumental Progressive/Heavy Metal
post May 4 2020, 14:54:10
Post #1

Маньяк
**********
Group: Металариец
Posts: 1,499
Releases: 252
On Forums: 11 years 11 months
Thanks: 5236 time(s)
Russian Federation


(IMG:http://metalarea.org/images/audiocovers/2020_May/acov_tid337269_thumb.jpg)

*Artist: Robyn Ferguson
*Album: Alizarin [ep]
*Year: 2019
*Genre: Instrumental Progressive/Heavy Metal
*Country: South Africa (IMG:http://metalarea.org/forum/style_images/flags/South%20Africa.png)
*Format: mp3@CBR320kbps
*Size: 32MB

Tracklist:
01. The Raven 03:44
02. The Oceanborn 03:01
03. The Time Bender 02:34
04. The Pack 04:28
******************************
Total playing time: 13:47


Preview 2
Preview 3


Extended info
Lineup:
Robyn Ferguson All instruments (2019-present)

(IMG:https://scontent-frt3-1.xx.fbcdn.net/v/t1.0-1/p720x720/83238333_3296482307035072_2343556747672682496_o.jpg?_nc_cat=104&_nc_sid=dbb9e7&_nc_ohc=0sr23PzBj0UAX-17GMN&_nc_ht=scontent-frt3-1.xx&_nc_tp=6&oh=bae79e860d01c1b8bfad50024a81bdb3&oe=5ED29261)

Robyn Ferguson:
Guitarist and Vocalist, Ibanez South Africa Guitar Endorsee, Elixir Strings Endorsee.
*Robyn Ferguson (Solo Artist)
*Adorned in Ash
*Sistas Of Metal

Awards:

2017- AWARDED Best Black Metal Band in the 2018 (recognising 2017) South African Metal Music Awards (SAMMA)

2016- Nominated for Best Black Metal band in the South African Metal Music Awards.

2015- AWARDED Best Death Metal Band in the 2016(recognising 2015) South African Metal Music Awards (SAMMA)

2015- Nominated in 2 South African Metal Music Awards categories:

1. Best Death Metal Band
2. Best Music Video

2014- Nominated in 3 South African Metal Awards categories:

1. Best Black Metal band
2. Best Live Act
3. Best Metal Vocalist


Technical info
(IMG:http://metalarea.org/images/spectrogram/2020_May/1d3b052263554020ba895176973b603d.png)
Input File: 01-The Raven.mp3
Channels : 2
Sample Rate : 44100
Precision : 16-bit
Duration : 00:03:44.56 = 9903272 samples = 16842.3 CDDA sectors
File Size : 8.98M
Bit Rate : 320k
Sample Encoding: MPEG audio (layer I, II or III)
Comments :
Title=The Raven
Artist=Robyn Ferguson
Album=Alizarin
Tracknumber=1/4
Year=2019
Genre=Progressive Metal



Register


Go to the top of the page
  Insert nick Quick quote
+Quote Post

Reply to this topicStart new topic
1 User(s) are reading this topic (1 Guests and 0 Anonymous Users)
0 Members:

 



- Lo-Fi Version Support form
Copyrights and abuse reports form
Time is now: 21st October 2020 - 11:23:53