Welcome Guest ( Log In | Register )

 
Reply to this topicStart new topic
> Skylla - Mother Crataeïs [ep] (2001), Doom/Death Metal
post May 6 2020, 11:32:26
Post #1

Шесть Литров
******
Group: Металариец
Posts: 604
Releases: 77
From: SteelCity, Upper Austria
On Forums: 10 years 11 months
Thanks: 1144 time(s)
Austria


(IMG:http://metalarea.org/images/audiocovers/2020_May/acov_tid337324_thumb.jpg)

*Artist: Skylla
*Album: Mother Crataeïs [ep]
*Year: 2001
*Genre: Doom/Death Metal
*Country: Netherlands (IMG:http://metalarea.org/forum/style_images/flags/Netherlands.png)
*Format: mp3@CBR128kbps (IMG:http://metalarea.org/images/bit_low.gif)
*Size: 27MB

Tracklist:
01.  Coat of Tar  05:47
02.  Bewitched and haunted  08:12
03.  The lost Cornucopia  08:08
04.  Bleak  07:11
******************************
Total playing time: 29:18

M-A

Extended info
requested


Technical info
(IMG:http://metalarea.org/images/spectrogram/2020_May/28e09f7e69ff3e5be4dbadcfb6574bae.png)
Input File: Skylla [NLD] — 2001 — Mother Crataeïs — 02 — Bewitched and haunted.mp3
Channels : 2
Sample Rate : 44100
Precision : 16-bit
Duration : 00:08:12.13 = 21702801 samples = 36909.5 CDDA sectors
File Size : 7.88M
Bit Rate : 128k
Sample Encoding: MPEG audio (layer I, II or III)
Comments :
Title=Bewitched and haunted
Artist=Skylla [NLD]
Album=Mother Crataeïs
Tracknumber=02
Year=2001
Genre=Doom/Death Metal



Register


Go to the top of the page
  Insert nick Quick quote
+Quote Post

Reply to this topicStart new topic
2 User(s) are reading this topic (2 Guests and 0 Anonymous Users)
0 Members:

 



- Lo-Fi Version Support form
Copyrights and abuse reports form
Time is now: 3rd March 2024 - 09:47:02