Welcome Guest ( Log In | Register )

Объявления

* gmail.com упорно продолжает считать почту с нас "unsolicited" и отбивает в том числе и письма активации, поэтому просьба использовать альтернативные почтовые ящики.
------------
* gmail.com continues reject all mail from us as "unsolicited" (activation mails too) therefore please use alternate mail servers.
 
Reply to this topicStart new topic
> Goatmoon - Demo 1 [demo] (2002), Black Metal
post May 8 2020, 22:30:09
Post #1

the faceless one
Group Icon
Group: S-moderation team
Posts: 9,607
Releases: 1979
On Forums: 15 years 10 months
Thanks: 124403 time(s)
Antarctica


(IMG:http://metalarea.org/images/audiocovers/2020_May/acov_tid337420_thumb.jpg)

*Artist: Goatmoon
*Album: Demo 1 [demo]
*Year: 2002
*Genre: Black Metal
*Country: Finland (IMG:http://metalarea.org/forum/style_images/flags/Finland.png)
*Format: mp3@CBR320kbps
*Size: 36MB

Tracklist:
1. Black Metal Winter 03:22
2. From Hate 02:35
3. Tormenting The Son Of The Priests 01:12
4. Pure Blood (Old Version) 03:45
5. Unholy Blaspheme 04:47
******************************
Total playing time: 15:41

Extended info
Tape-rip by Winterhordes


Technical info
(IMG:http://metalarea.org/images/spectrogram/2020_May/db15cc170817224c6b0bc59d1c2b3945.png)
Input File: 02 - From Hate.mp3
Channels : 2
Sample Rate : 44100
Precision : 16-bit
Duration : 00:02:35.39 = 6852611 samples = 11654.1 CDDA sectors
File Size : 6.29M
Bit Rate : 324k
Sample Encoding: MPEG audio (layer I, II or III)
Comments :
Title=From Hate
Artist=Goatmoon
Album=Demo 1
Tracknumber=2
Year=2002
Genre=Black Metal



Register


Go to the top of the page
  Insert nick Quick quote
+Quote Post

Reply to this topicStart new topic
1 User(s) are reading this topic (1 Guests and 0 Anonymous Users)
0 Members:

 



- Lo-Fi Version Support form
Copyrights and abuse reports form
Time is now: 17th June 2024 - 07:14:18