Welcome Guest ( Log In | Register )

Объявления

* gmail.com упорно продолжает считать почту с нас "unsolicited" и отбивает в том числе и письма активации, поэтому просьба использовать альтернативные почтовые ящики.
------------
* gmail.com continues reject all mail from us as "unsolicited" (activation mails too) therefore please use alternate mail servers.
 
Reply to this topicStart new topic
> Goatmoon - Demo 2 [demo] (2002), Black Metal
post May 8 2020, 22:30:21
Post #1

the faceless one
Group Icon
Group: S-moderation team
Posts: 9,607
Releases: 1979
On Forums: 15 years 10 months
Thanks: 124403 time(s)
Antarctica


(IMG:http://metalarea.org/images/audiocovers/2020_May/acov_tid337421_thumb.jpg)

*Artist: Goatmoon
*Album: Demo 2 [demo]
*Year: 2002
*Genre: Black Metal
*Country: Finland (IMG:http://metalarea.org/forum/style_images/flags/Finland.png)
*Format: mp3@CBR320kbps
*Size: 27MB

Tracklist:
1. Pure Blood 02:42
2. Black Metal Winter 03:22
3. Bloodvengeance 02:07
4. Desecration 02:24
******************************
Total playing time: 10:36

Extended info
Tape-rip by Winterhordes


Technical info
(IMG:http://metalarea.org/images/spectrogram/2020_May/ea6fb97eff1daf079cef315b2e2ff58b.png)
Input File: 01 - Pure Blood.mp3
Channels : 2
Sample Rate : 44100
Precision : 16-bit
Duration : 00:02:42.44 = 7163648 samples = 12183.1 CDDA sectors
File Size : 7.37M
Bit Rate : 363k
Sample Encoding: MPEG audio (layer I, II or III)
Comments :
Title=Pure Blood
Artist=Goatmoon
Album=Demo 2
Tracknumber=1
Year=2002
Genre=Black Metal



Register


Go to the top of the page
  Insert nick Quick quote
+Quote Post

Reply to this topicStart new topic
1 User(s) are reading this topic (1 Guests and 0 Anonymous Users)
0 Members:

 



- Lo-Fi Version Support form
Copyrights and abuse reports form
Time is now: 17th June 2024 - 08:35:55