Welcome Guest ( Log In | Register )

Объявления

* gmail.com упорно продолжает считать почту с нас "unsolicited" и отбивает в том числе и письма активации, поэтому просьба использовать альтернативные почтовые ящики.
------------
* gmail.com continues reject all mail from us as "unsolicited" (activation mails too) therefore please use alternate mail servers.
 
Reply to this topicStart new topic
> Goatmoon - Demo 3 [demo] (2002), Black Metal
post May 8 2020, 22:30:32
Post #1

the faceless one
Group Icon
Group: S-moderation team
Posts: 9,607
Releases: 1979
On Forums: 15 years 10 months
Thanks: 124403 time(s)
Antarctica


(IMG:http://metalarea.org/images/audiocovers/2020_May/acov_tid337422_thumb.jpg)

*Artist: Goatmoon
*Album: Demo 3 [demo]
*Year: 2002
*Genre: Black Metal
*Country: Finland (IMG:http://metalarea.org/forum/style_images/flags/Finland.png)
*Format: mp3@CBR320kbps
*Size: 28MB

Tracklist:
1. Black Metal Winter 03:22
2. In The Cursing Embrace 02:56
3. Pure Blood 02:36
4. Light Will Not Be 02:06
******************************
Total playing time: 10:56

Extended info
Tape-rip by Winterhordes


Technical info
(IMG:http://metalarea.org/images/spectrogram/2020_May/00c21a2dee5b29a5e6e37fe67d21e774.png)
Input File: 03 - Pure Blood.mp3
Channels : 2
Sample Rate : 44100
Precision : 16-bit
Duration : 00:02:36.51 = 6902135 samples = 11738.3 CDDA sectors
File Size : 7.10M
Bit Rate : 363k
Sample Encoding: MPEG audio (layer I, II or III)
Comments :
Title=Pure Blood
Artist=Goatmoon
Album=Demo 3
Tracknumber=3
Year=2002
Genre=Black Metal



Register


Go to the top of the page
  Insert nick Quick quote
+Quote Post

Reply to this topicStart new topic
1 User(s) are reading this topic (1 Guests and 0 Anonymous Users)
0 Members:

 



- Lo-Fi Version Support form
Copyrights and abuse reports form
Time is now: 17th June 2024 - 07:31:28