Welcome Guest ( Log In | Register )

> Effroi - Cryptic Prophecies [demo] (2019), Black Metal
post May 12 2020, 04:59:00
Post #1

Пять Литров
*****
Group: Металариец
Posts: 431
Releases: 73
From: italy
On Forums: 12 years 11 months
Thanks: 1640 time(s)
Italy


(IMG:https://metalarea.org/images/audiocovers/2020_May/acov_tid337533_thumb.jpg)

*Artist: Effroi
*Album: Cryptic Prophecies [demo]
*Year: 2019
*Genre: Black Metal
*Country: Belgium (IMG:https://metalarea.org/forum/style_images/flags/Belgium.png)
*Format: mp3@CBR320kbps
*Size: 34MB

Tracklist:
1. Introduction 00:14
2. Impurity 04:47
3. Master of Shadows 04:14
4. Realm of the Eternal Dark 05:23
******************************
Total playing time: 14:38

Technical info
(IMG:https://metalarea.org/images/spectrogram/2020_May/466c8244acd9fc917926be87a579a095.png)
Input File: 2.mp3
Channels : 2
Sample Rate : 44100
Precision : 16-bit
Duration : 00:05:00.01 = 13230265 samples = 22500.5 CDDA sectors
File Size : 12.1M
Bit Rate : 322k
Sample Encoding: MPEG audio (layer I, II or III)
Comments :
Title=Impurity
Artist=Effroi
Album=Cryptic Prophecies
Tracknumber=2
Genre=Black Metal



Register


Go to the top of the page
  Insert nick Quick quote
+Quote Post
 
Start new topic
Replies (1 - 1)
post May 12 2020, 07:31:00
Post #2

While Waiting the Worms
**********
Group: Металариец
Posts: 1,319
Releases: 0
On Forums: 7 years 5 months
Thanks: 1981 time(s)
Unknown




Go to the top of the page
  Insert nick Quick quote
+Quote Post

Reply to this topicStart new topic
2 User(s) are reading this topic (2 Guests and 0 Anonymous Users)
0 Members:

 



- Lo-Fi Version Support form
Copyrights and abuse reports form
Time is now: 20th June 2021 - 23:14:28