Welcome Guest ( Log In | Register )

> Sepulchre - Thrill Of A Kill (2019), Death/Thrash Metal
post May 12 2020, 12:49:29
Post #1

Правь статус, ####!111
**************
Group: Металариец
Posts: 26,375
Releases: 18969
From: Г.Харьков
On Forums: 9 years 1 month
Thanks: 378675 time(s)
Unknown


(IMG:https://metalarea.org/images/audiocovers/2020_May/acov_tid337561_thumb.jpg)

*Artist: Sepulchre
*Album: Thrill Of A Kill
*Year: 2019
*Genre: Death/Thrash Metal
*Country: United Kingdom (IMG:https://metalarea.org/forum/style_images/flags/United%20Kingdom.png)
*Format: mp3@CBR320kbps
*Size: 91MB

Tracklist:
1. Raptures End 02:33 instrumental
2. Ignored 02:35
3. Entropy 02:09
4. Jolly Jane 04:34
5. Acid for Blood 01:48
6. Modern Day Slavery 02:38
7. Desolate 06:29
8. Move or Die 03:33
9. Clouded 03:19
10. Bed Bound 02:00
11. Facing Death 01:05
12. Kill Me 03:04
13. Orchid 01:46
******************************
Total playing time: 37:33




Extended info
Aimee Coppola Drums
Darren Evans Vocals, Guitars
Dan Yeoman Guitars, Vocals (backing)
Jimmy Lambourne Bass



Technical info
(IMG:https://metalarea.org/images/spectrogram/2020_May/4b1d0998e5849177fa61af60ae1ef1f6.png)
Input File: 04 Jolly Jane.mp3
Channels : 2
Sample Rate : 44100
Precision : 16-bit
Duration : 00:04:34.27 = 12095483 samples = 20570.5 CDDA sectors
File Size : 11.6M
Bit Rate : 338k
Sample Encoding: MPEG audio (layer I, II or III)
Comments :
Title=Jolly Jane
Artist=Sepulchre
Album=Thrill of a Kill
Tracknumber=4/13
Year=2020-20-20
Genre=Metal
Discnumber=1/1



Register


Go to the top of the page
  Insert nick Quick quote
+Quote Post
 
Start new topic
Replies (1 - 3)
post May 12 2020, 13:35:15
Post #2

\m/
Group Icon
Group: S-moderation team
Posts: 7,932
Releases: 19
From: Петропавловск-Камчатский
On Forums: 12 years 1 week
Thanks: 7984 time(s)
Russian Federation


По превью скучно и не интересно


Thanks:
Go to the top of the page
  Insert nick Quick quote
+Quote Post
post May 15 2020, 17:00:28
Post #3

Common dweller of hell
**************
Group: Металариец
Posts: 3,829
Releases: 12
From: Dnipro
On Forums: 12 years 11 months
Thanks: 1508 time(s)
Ukraine


ЦИТАТА(DarkHorde @ May 12 2020, 15:35:15) *
По превью скучно и не интересно

Зато сиськи есть (IMG:style_emoticons/default/1488.gif)
Go to the top of the page
  Insert nick Quick quote
+Quote Post
post Jan 31 2021, 22:12:06
Post #4

Правь статус, ####!111
**************
Group: Металариец
Posts: 2,476
Releases: 0
On Forums: 6 years 1 month
Thanks: 3163 time(s)
Russian Federation


Из сети,320
Register
Go to the top of the page
  Insert nick Quick quote
+Quote Post

Reply to this topicStart new topic
2 User(s) are reading this topic (2 Guests and 0 Anonymous Users)
0 Members:

 



- Lo-Fi Version Support form
Copyrights and abuse reports form
Time is now: 25th June 2021 - 09:59:11