Welcome Guest ( Log In | Register )

Объявления

* gmail.com упорно продолжает считать почту с нас "unsolicited" и отбивает в том числе и письма активации, поэтому просьба использовать альтернативные почтовые ящики.
------------
* gmail.com continues reject all mail from us as "unsolicited" (activation mails too) therefore please use alternate mail servers.
> Ivar's Burial - Demo 2017 [demo] (2020), Raw Black Metal
post May 14 2020, 10:46:24
Post #1

Правь статус, ####!111
**************
Group: Металариец
Posts: 2,754
Releases: 2266
From: Praha
On Forums: 10 years 2 months
Thanks: 63944 time(s)
Czech Republic


(IMG:http://metalarea.org/images/audiocovers/2020_May/acov_tid337630_thumb.jpg)

*Artist: Ivar's Burial
*Album: Demo 2017 [demo]
*Year: 2020
*Genre: Raw Black Metal
*Country: United Kingdom (IMG:http://metalarea.org/forum/style_images/flags/United%20Kingdom.png)
*Format: mp3@CBR320kbps
*Size: 52MB

Tracklist:
1. Vexation Of All Joy 05:20
2. Penda's Fen 02:41
3. Old World Torture 02:33
4. Obscure Carnage 03:45
5. In Praise Of Barbaric Slaughter 02:34
6. The Eternal Boiling Of Malefic War 05:07
******************************
Total playing time: 22:00



Extended info
Legion Blotan ‎– BLOTTAPE103


Technical info
(IMG:http://metalarea.org/images/spectrogram/2020_May/d8965f50767d846364dafa10a12b60b3.png)
Input File: 02. Penda\'s Fen.mp3
Channels : 2
Sample Rate : 44100
Precision : 16-bit
Duration : 00:02:41.97 = 7142789 samples = 12147.6 CDDA sectors
File Size : 6.59M
Bit Rate : 325k
Sample Encoding: MPEG audio (layer I, II or III)
Comments :
Title=Penda's Fen
Artist=Ivar's Burial
Album=Demo 2017
Tracknumber=02/06
Year=2020
Genre=Black Metal



Register


Go to the top of the page
  Insert nick Quick quote
+Quote Post
 
Start new topic
Replies (1 - 1)
post May 14 2020, 14:39:22
Post #2

Trickster
Group Icon
Group: V.I.P
Posts: 6,577
Releases: 322
On Forums: 13 years 4 months
Thanks: 15273 time(s)
Russian Federation


(IMG:style_emoticons/default/true_black.gif)
Go to the top of the page
  Insert nick Quick quote
+Quote Post

Reply to this topicStart new topic
1 User(s) are reading this topic (1 Guests and 0 Anonymous Users)
0 Members:

 



- Lo-Fi Version Support form
Copyrights and abuse reports form
Time is now: 20th June 2024 - 10:07:07