Welcome Guest ( Log In | Register )

> Postvorta - Siderael Pt. One (2020), Atmospheric Sludge/Post-Metal (D5)
post May 15 2020, 07:14:28
Post #1

Правь статус, ####!111
**************
Group: Металариец
Posts: 4,283
Releases: 3930
From: Одесса
On Forums: 13 years 3 months
Thanks: 43328 time(s)
Ukraine


(IMG:http://metalarea.org/images/audiocovers/2020_May/acov_tid337681_thumb.jpg)

*Artist: Postvorta
*Album: Siderael Pt. One
*Year: 2020
*Genre: Atmospheric Sludge/Post-Metal
*Country: Italy (IMG:http://metalarea.org/forum/style_images/flags/Italy.png)
*Format: mp3@CBR320kbps
*Size: 101MB

Tracklist:
1. Through 4k Lenses 07:22
2. Viper 08:09
3. Spoon 05:59
4. Lunar 08:13
5. Fog and Concrete 07:16
6. More Than 10.000 05:43
******************************
Total playing time: 42:42

bandcamp

Extended info
FLAC RIP

Line - up:

Raffaele Marra - Bass
Matteo Borzini - Drums (The End of Six Thousand Years)
Nicola Donà - Guitars (early), Vocals (The End of Six Thousand Years)
Mohammed Kamel - Guitars, Synths (Void of Sleep, Pie Are Squared, Śruti, ex-Feed Me!)
Andrea Fioravanti - Guitars, Synths
Seppia Foschini - Guitars (ex-Mudgrave)

(IMG:https://www.metal-archives.com/images/3/5/4/0/3540465876_photo.jpg?5845)


Technical info
(IMG:http://metalarea.org/images/spectrogram/2020_May/62ecd35d5e5d1d45ec880bab6ffb54ca.png)
Input File: 03. Spoon.mp3
Channels : 2
Sample Rate : 44100
Precision : 16-bit
Duration : 00:05:59.18 = 15839838 samples = 26938.5 CDDA sectors
File Size : 14.4M
Bit Rate : 321k
Sample Encoding: MPEG audio (layer I, II or III)
Comments :
Title=Spoon
Artist=Postvorta
Album=Siderael Pt. One
Tracknumber=3
Year=2020
Genre=Atmospheric Sludge/Post-Metal



Register


Go to the top of the page
  Insert nick Quick quote
+Quote Post
 
Start new topic
Replies (1 - 3)
post May 16 2020, 09:25:40
Post #2

Три Литра
***
Group: Завсегдатай
Posts: 275
Releases: 0
From: минск сити
On Forums: 12 years 2 months
Thanks: 115 time(s)
Belarus


Это однозначно неформат.
Go to the top of the page
  Insert nick Quick quote
+Quote Post
post Jun 19 2020, 18:06:24
Post #3

Семь Литров
*******
Group: Металариец
Posts: 720
Releases: 10
On Forums: 12 years 8 months
Thanks: 163 time(s)
Germany


please, re-upload.
Go to the top of the page
  Insert nick Quick quote
+Quote Post
post Jun 19 2020, 20:41:14
Post #4

Восемь Литров
********
Group: Металариец
Posts: 858
Releases: 0
On Forums: 13 years 11 months
Thanks: 385 time(s)
Poland


ЦИТАТА(deathic @ Jun 19 2020, 20:06:24) *
please, re-upload.

что тебе мешает с бэндкэмп скачать бесплатно??


Thanks:
(1) deathic,
Go to the top of the page
  Insert nick Quick quote
+Quote Post

Reply to this topicStart new topic
1 User(s) are reading this topic (1 Guests and 0 Anonymous Users)
0 Members:

 



- Lo-Fi Version Support form
Copyrights and abuse reports form
Time is now: 25th September 2021 - 01:13:16