Welcome Guest ( Log In | Register )

 
Reply to this topicStart new topic
> Cyberhed - Cyberhed [demo] (1993), Thrash Metal
post May 15 2020, 11:59:23
Post #1

Подвал
**************
Group: Металариец
Posts: 14,788
Releases: 8383
From: Far East (Khabarovsk)
On Forums: 11 years 5 months
Thanks: 86959 time(s)
Russian Federation


(IMG:http://metalarea.org/images/audiocovers/2020_May/acov_tid337698_thumb.jpg)

*Artist: Cyberhed
*Album: Cyberhed [demo]
*Year: 1993
*Genre: Thrash Metal
*Country: Germany (IMG:http://metalarea.org/forum/style_images/flags/Germany.png)
*Format: mp3@CBR320kbps
*Size: 55MB

Tracklist:
1. Dimension 05:43
2. Machinehead 03:25
3. H.I.V. 05:32
4. Riot 05:03
5. Choose Your God 04:56
******************************
Total playing time: 24:39

Technical info
(IMG:http://metalarea.org/images/spectrogram/2020_May/f024fa96435a1f57a1a38b1c30699b75.png)
Input File: 01-Dimension.mp3
Channels : 2
Sample Rate : 48000
Precision : 16-bit
Duration : 00:05:43.49 = 16487424 samples ~ 25761.6 CDDA sectors
File Size : 13.7M
Bit Rate : 320k
Sample Encoding: MPEG audio (layer I, II or III)
Comments :
Title=Dimension
Artist=Cyberhed
Album=Cyberhed (Demo)
Tracknumber=1
Year=1993
Genre=Thrash Metal



Register


Go to the top of the page
  Insert nick Quick quote
+Quote Post

Reply to this topicStart new topic
2 User(s) are reading this topic (2 Guests and 0 Anonymous Users)
0 Members:

 



- Lo-Fi Version Support form
Copyrights and abuse reports form
Time is now: 10th July 2020 - 03:56:32