Welcome Guest ( Log In | Register )

> Asenblut - Die Wilde Jagd (2020), Black/Thrash/Pagan Metal
post May 15 2020, 19:41:36
Post #1

Правь статус, ####!111
**************
Group: Металариец
Posts: 28,587
Releases: 20922
From: Г.Харьков
On Forums: 9 years 8 months
Thanks: 427838 time(s)
Unknown


(IMG:https://metalarea.org/images/audiocovers/2020_May/acov_tid337726_thumb.jpg)

*Artist: Asenblut
*Album: Die Wilde Jagd
*Year: 2020
*Genre: Black/Thrash/Pagan Metal
*Country: Germany (IMG:https://metalarea.org/forum/style_images/flags/Germany.png)
*Format: mp3@CBR320kbps
*Size: 171MB

Tracklist:
1. Die wilde Jagd 05:12
2. Codex Gigas 04:42
3. Seite an Seite 04:33
4. Irminsul 05:10
5. Drachentöter 05:34
6. Penumbra 06:07
7. Weder Gott, noch Könige 04:39
8. Wolfshunger 04:22
9. 300 06:00
10. Seite an Seite (extended version) 05:42
******************************
Total playing time: 52:01



Extended info
CD-Rip+Scans
Tetzel Guitars (rhythm), Vocals (2006-2016), Vocals (2016-present)
Claus Cleinkrieg Guitars (lead) (2007-present)
Balrogh Drums (2009-present)
See also: Soul Grinder, ex-Reverence Lost, ex-Into Pain, ex-Bleeding in Desperation, ex-Hidden Agenda, ex-To Resist Fatality
Sash Bass (2017-present)
Stan Ro Guitars (2018-present)
See also: Vagrant




Technical info
(IMG:https://metalarea.org/images/spectrogram/2020_May/745219ed4983b82af09b1726db302ac4.png)
Input File: 04 - Irminsul.mp3
Channels : 2
Sample Rate : 44100
Precision : 16-bit
Duration : 00:05:10.30 = 13684318 samples = 23272.6 CDDA sectors
File Size : 12.8M
Bit Rate : 330k
Sample Encoding: MPEG audio (layer I, II or III)
Comments :
Title=Irminsul
Artist=Asenblut
Album=Die Wilde Jagd
Tracknumber=4
Year=2020



Register


Go to the top of the page
  Insert nick Quick quote
+Quote Post
 
Start new topic
Replies (1 - 4)
post May 16 2020, 10:03:50
Post #2

Мегаманьяк
***********
Group: Металариец
Posts: 1,526
Releases: 0
From: Russian Federation - St.Petersburg
On Forums: 12 years 10 months
Thanks: 418 time(s)
Russian Federation


Неплохо, (IMG:style_emoticons/default/smile4.gif) похоже на Амонов! (IMG:style_emoticons/default/dwarf-1.gif)


Thanks:
(1) Andrew,
Go to the top of the page
  Insert nick Quick quote
+Quote Post
post May 18 2020, 23:01:41
Post #3

Шесть Литров
******
Group: Металариец
Posts: 586
Releases: 26
On Forums: 12 years 8 months
Thanks: 572 time(s)
Chile


Thanks (IMG:style_emoticons/default/dwarf-1.gif)
Go to the top of the page
  Insert nick Quick quote
+Quote Post
post May 21 2020, 20:11:45
Post #4

MDM-Thrash Metal
**************
Group: Металариец
Posts: 10,788
Releases: 1359
From: Одесса
On Forums: 14 years 5 months
Thanks: 32793 time(s)
Ukraine


ЦИТАТА(Olrak @ May 16 2020, 12:03:50) *
Неплохо, (IMG:style_emoticons/default/smile4.gif) похоже на Амонов! (IMG:style_emoticons/default/dwarf-1.gif)

Очень даже похоже!

ЦИТАТА(Samaritianin @ May 15 2020, 21:41:36) *
*Genre: Black/Thrash/Pagan Metal

Ни первого, ни второго и не третьего здесь нет.....
Go to the top of the page
  Insert nick Quick quote
+Quote Post
post Dec 27 2020, 22:27:03
Post #5

Четыре Литра
****
Group: Металариец
Posts: 394
Releases: 0
From: Москва
On Forums: 13 years 4 months
Thanks: 80 time(s)
Russian Federation


Ей Богу, школотой какой то тянет! Ну не воспринимается серьезно творчество.
Go to the top of the page
  Insert nick Quick quote
+Quote Post

Reply to this topicStart new topic
2 User(s) are reading this topic (2 Guests and 0 Anonymous Users)
0 Members:

 



- Lo-Fi Version Support form
Copyrights and abuse reports form
Time is now: 24th January 2022 - 15:00:01