Welcome Guest ( Log In | Register )

 
Reply to this topicStart new topic
> Saddleback Shark - Machinegun Raindance (1992), Glam Rock/Funk/Groove Metal
post May 18 2020, 10:04:34
Post #1

Подвал
**************
Group: Металариец
Posts: 14,788
Releases: 8383
From: Far East (Khabarovsk)
On Forums: 11 years 5 months
Thanks: 86959 time(s)
Russian Federation


(IMG:http://metalarea.org/images/audiocovers/2020_May/acov_tid337793_thumb.jpg)

*Artist: Saddleback Shark
*Album: Machinegun Raindance
*Year: 1992
*Genre: Glam Rock/Funk/Groove Metal
*Country: United States (IMG:http://metalarea.org/forum/style_images/flags/United%20States.png)
*Format: mp3@CBR128kbps (IMG:http://metalarea.org/images/bit_low.gif)
*Size: 43MB

Tracklist:
1. Machinegun Raindance 04:17
2. Pig Romp (Capitol War Stomp) 04:10
3. Bad Mouthin' 03:56
4. Jazzupy Lounge 02:57
5. Lunch With A Psycho 03:40
6. Rob's Down Home Cookin' 04:25
7. Suck Up And Bust 03:30
8. King By My Own Hand 03:50
9. No Pretty Picture 04:36
10. Suffocation Blvd. 05:06
11. 10 Guns Kickin' 03:11
12. Not Yet, You Bet 00:53
13. Sexual Monster 03:06
******************************
Total playing time: 47:37

Extended info
Band from Columbus, Ohio.


Technical info
(IMG:http://metalarea.org/images/spectrogram/2020_May/37b0e336bd6a039f548c65038bd46c10.png)
Input File: 03-Bad Mouthin\'.mp3
Channels : 2
Sample Rate : 44100
Precision : 16-bit
Duration : 00:03:56.15 = 10414391 samples = 17711.5 CDDA sectors
File Size : 3.78M
Bit Rate : 128k
Sample Encoding: MPEG audio (layer I, II or III)
Comments :
Title=Badmouthin
Artist=Saddleback Shark
Album=Machinegun Raindance
Tracknumber=03
Year=1992
Genre=Metal



Register


Go to the top of the page
  Insert nick Quick quote
+Quote Post

Reply to this topicStart new topic
2 User(s) are reading this topic (2 Guests and 0 Anonymous Users)
0 Members:

 



- Lo-Fi Version Support form
Copyrights and abuse reports form
Time is now: 10th July 2020 - 04:22:16