Welcome Guest ( Log In | Register )

> Releases Upload / Добавление релизов

Добавить релиз тут / Click here to add release
Рекомендованные обменники / Recommended file shares

 
Reply to this topicStart new topic
> Devastator - Alteration [demo] (1991), Thrash Metal (D)
post May 18 2020, 10:56:02
Post #1

Подвал
**************
Group: Металариец
Posts: 14,788
Releases: 8383
From: Far East (Khabarovsk)
On Forums: 11 years 5 months
Thanks: 86959 time(s)
Russian Federation


(IMG:http://metalarea.org/images/audiocovers/2020_May/acov_tid337797_thumb.jpg)

*Artist: Devastator
*Album: Alteration [demo]
*Year: 1991
*Genre: Thrash Metal
*Country: Canada (IMG:http://metalarea.org/forum/style_images/flags/Canada.png)
*Format: mp3@CBR320kbps
*Size: 30MB

Tracklist:
1. Alteration 03:00
2. Back To Ashes 04:48
3. Ominious Denizen 05:25
******************************
Total playing time: 13:13




Technical info
(IMG:http://metalarea.org/images/spectrogram/2020_May/3585daf78bf558954584224051796607.png)
Input File: 01-Alteration.mp3
Channels : 2
Sample Rate : 44100
Precision : 16-bit
Duration : 00:03:00.89 = 7977029 samples = 13566.4 CDDA sectors
File Size : 7.25M
Bit Rate : 320k
Sample Encoding: MPEG audio (layer I, II or III)
Comments :
Title=Alteration
Artist=Devastator
Album=Alteration (Demo)
Tracknumber=01
Year=1991
Genre=Thrash Metal



Register


Go to the top of the page
  Insert nick Quick quote
+Quote Post

Reply to this topicStart new topic
2 User(s) are reading this topic (2 Guests and 0 Anonymous Users)
0 Members:

 



- Lo-Fi Version Support form
Copyrights and abuse reports form
Time is now: 10th July 2020 - 04:58:02