Welcome Guest ( Log In | Register )

> Skravl - En Higen Mod Tilintetgørelsen [ep] (2020), Black Metal
post May 20 2020, 23:06:11
Post #1

Пять Литров
*****
Group: Металариец
Posts: 431
Releases: 73
From: italy
On Forums: 12 years 11 months
Thanks: 1640 time(s)
Italy


(IMG:https://metalarea.org/images/audiocovers/2020_May/acov_tid337881_thumb.jpg)

*Artist: Skravl
*Album: En Higen Mod Tilintetgørelsen [ep]
*Year: 2020
*Genre: Black Metal
*Country: Denmark (IMG:https://metalarea.org/forum/style_images/flags/Denmark.png)
*Format: mp3@CBR320kbps
*Size: 47MB

Tracklist:
1. Untitled 05:22
2. Untitled 05:44
3. Untitled 03:28
4. Untitled 05:52
******************************
Total playing time: 20:26



Technical info
(IMG:https://metalarea.org/images/spectrogram/2020_May/00719c5fee89fab11b26833f39722c37.png)
Input File: 01 Untitled.mp3
Channels : 2
Sample Rate : 44100
Precision : 16-bit
Duration : 00:05:22.97 = 14243065 samples = 24222.9 CDDA sectors
File Size : 13.0M
Bit Rate : 322k
Sample Encoding: MPEG audio (layer I, II or III)
Comments :
Title=Untitled
Artist=Skravl
Album=En Higen Mod Tilintetgørelsen
Tracknumber=1
Year=2020
Genre=Black Metal



Register


Go to the top of the page
  Insert nick Quick quote
+Quote Post
 
Start new topic
Replies (1 - 3)
post May 21 2020, 12:21:24
Post #2

While Waiting the Worms
**********
Group: Металариец
Posts: 1,319
Releases: 0
On Forums: 7 years 5 months
Thanks: 1981 time(s)
Unknown


Грамотный со всех сторон, строго выверенный атмосферно-размашистый стафф в среднем темпе и без неожиданностей.
К типично скандинавскому духу дебютника добавились некоторые намёки на Monarque, что сделало материал несколько разнообразнее.
Чувствуется, товарищ явно не новичок в деле (хоть и не композиторский гений) - вменяемые аранжировки, толковые мелодии.

Однако, не цепляет меня Skravl. Музыка вполне хороша, но мне одной музыки мало. А ничего иного я от этой записи не чувствую.
В общем, есть что послушать, а не послушав, ничего не потеряете. На разок-другой, для голодных и неискушённых.


Thanks:
Go to the top of the page
  Insert nick Quick quote
+Quote Post
post May 21 2020, 12:59:30
Post #3

Три Литра
***
Group: Завсегдатай
Posts: 234
Releases: 0
On Forums: 1 year 3 months
Thanks: 152 time(s)
Unknown


В меру сыроватый и в меру атмосферный Блэк Метал скандинавского образца. Основной упор сделан на гитарную часть, и с этим у датчанина нет ни каких трудностей. Можно рекомендовать к ознакомлению.
Go to the top of the page
  Insert nick Quick quote
+Quote Post
post Jun 30 2020, 05:49:22
Post #4

Правь статус, ####!111
**************
Group: Металариец
Posts: 4,800
Releases: 1472
From: Brazil
On Forums: 9 years 4 months
Thanks: 55034 time(s)
Brazil


Register

mp3@CBR320kbps
Go to the top of the page
  Insert nick Quick quote
+Quote Post

Reply to this topicStart new topic
2 User(s) are reading this topic (2 Guests and 0 Anonymous Users)
0 Members:

 



- Lo-Fi Version Support form
Copyrights and abuse reports form
Time is now: 20th June 2021 - 21:59:17