Welcome Guest ( Log In | Register )

> Blood Stronghold - Heritage In Ancient Shadows [ep] (2019), Atmospheric Black Metal (D)
post Jun 3 2020, 18:02:07
Post #1

Пять Литров
*****
Group: Металариец
Posts: 431
Releases: 73
From: italy
On Forums: 12 years 11 months
Thanks: 1640 time(s)
Italy


(IMG:https://metalarea.org/images/audiocovers/2020_Jun/acov_tid338524_thumb.jpg)

*Artist: Blood Stronghold
*Album: Heritage In Ancient Shadows [ep]
*Year: 2019
*Genre: Atmospheric Black Metal
*Country: Australia (IMG:https://metalarea.org/forum/style_images/flags/Australia.png)
*Format: mp3@CBR320kbps
*Size: 89MB

Tracklist:
1. Heritage in Ancient Shadows 08:20
2. Luperkalia (Ritual of Lutyj Zvier') 05:42
3. No Dawn Will Rise 02:55
4. The Stone Depths of Emptiness 07:21
5. Beneath Twilight Wings (part II) 04:39
6. Alone Walkyng (Hades cover) 10:09
******************************
Total playing time: 39:06

(IMG:https://metalarea.org/images/youtube.png)

Technical info
(IMG:https://metalarea.org/images/spectrogram/2020_Jun/a4749b8ff2ca70295122b35e53c01ea6.png)
Input File: 04. the stone depths of emptiness.mp3
Channels : 2
Sample Rate : 44100
Precision : 16-bit
Duration : 00:07:24.06 = 19582914 samples = 33304.3 CDDA sectors
File Size : 17.9M
Bit Rate : 322k
Sample Encoding: MPEG audio (layer I, II or III)
Comments :
Title=The Stone Depths Of Emptiness
Artist=Blood Stronghold
Album=Heritage In Ancient Shadows
Tracknumber=4
Year=2019
Genre=Atmospheric Black Metal



Register


Go to the top of the page
  Insert nick Quick quote
+Quote Post
 
Start new topic
Replies (1 - 8)
post Jun 3 2020, 21:46:32
Post #2

Правь статус, ####!111
Group Icon
Group: V.I.P
Posts: 4,664
Releases: 318
On Forums: 10 years 4 months
Thanks: 13239 time(s)
Russian Federation


Отлично, спасибо. Составит хорошую компанию новому полновесу в плейлисте (IMG:style_emoticons/default/smile4.gif)
Go to the top of the page
  Insert nick Quick quote
+Quote Post
post Jun 3 2020, 22:01:32
Post #3

Два Литра
**
Group: Завсегдатай
Posts: 166
Releases: 0
On Forums: 1 year 8 months
Thanks: 6 time(s)
United States


Can anyone add their new 2020 release here?
Go to the top of the page
  Insert nick Quick quote
+Quote Post
post Jun 3 2020, 22:42:07
Post #4

Black Metal War
***********
Group: Металариец
Posts: 1,799
Releases: 0
From: R'lyeh
On Forums: 4 years 6 months
Thanks: 2323 time(s)
Poland


Australia/Poland

Wened is a member of Blood Stronghold. (IMG:style_emoticons/default/smile3.gif)
Very interesting underground band. Recommended if you like Evilfeast. (IMG:style_emoticons/default/true_black.gif)


Go to the top of the page
  Insert nick Quick quote
+Quote Post
post Jun 4 2020, 05:57:45
Post #5

градусы контрастов
**************
Group: Металариец
Posts: 5,013
Releases: 0
On Forums: 5 years 4 months
Thanks: 3241 time(s)
Unknown


оу, помню, отличный атмосферный блэк.
забираю без вопросов.
дайте другие файлообменники пожалуйста.
Go to the top of the page
  Insert nick Quick quote
+Quote Post
post Jun 4 2020, 08:22:13
Post #6

Правь статус, ####!111
**************
Group: Металариец
Posts: 48,876
Releases: 834
On Forums: 12 years 2 weeks
Thanks: 43633 time(s)
Russian Federation


@320

Register


Register


Go to the top of the page
  Insert nick Quick quote
+Quote Post
post Jun 4 2020, 11:17:28
Post #7

Литр
*
Group: Подсевший
Posts: 56
Releases: 0
On Forums: 15 years 8 months
Thanks: 19 time(s)
Russian Federation


https://youtu.be/ALS-c25PMnk
Go to the top of the page
  Insert nick Quick quote
+Quote Post
post Jun 4 2020, 14:52:54
Post #8

Common dweller of hell
**************
Group: Металариец
Posts: 3,827
Releases: 12
From: Dnipro
On Forums: 12 years 11 months
Thanks: 1507 time(s)
Ukraine


Go to the top of the page
  Insert nick Quick quote
+Quote Post
post Jun 6 2020, 09:08:53
Post #9

градусы контрастов
**************
Group: Металариец
Posts: 5,013
Releases: 0
On Forums: 5 years 4 months
Thanks: 3241 time(s)
Unknown


вялый материал, под такой только засыпать.
понравилась только акустика.
Go to the top of the page
  Insert nick Quick quote
+Quote Post

Reply to this topicStart new topic
2 User(s) are reading this topic (2 Guests and 0 Anonymous Users)
0 Members:

 



- Lo-Fi Version Support form
Copyrights and abuse reports form
Time is now: 20th June 2021 - 22:26:26