Welcome Guest ( Log In | Register )

> Ormskrik - Ormskrik (2020), Blackened Thrash Metal
post Jun 5 2020, 15:20:09
Post #1

Правь статус, ####!111
**************
Group: Металариец
Posts: 26,729
Releases: 19290
From: Г.Харьков
On Forums: 9 years 2 months
Thanks: 386135 time(s)
Unknown


(IMG:https://metalarea.org/images/audiocovers/2020_Jun/acov_tid338582_thumb.jpg)

*Artist: Ormskrik
*Album: Ormskrik
*Year: 2020
*Genre: Blackened Thrash Metal
*Country: Norway (IMG:https://metalarea.org/forum/style_images/flags/Norway.png)
*Format: mp3@CBR320kbps
*Size: 107MB

Tracklist:
1. Occultness 03:20
2. Destroyer of Worlds 05:39
3. Oblation 01:35
4. March of the Dead 03:58
5. Descend To Madness 04:42
6. Deathwind 03:58
7. Vegen til 01:06
8. Helheim 04:13
9. The Morbid Arrives 04:32
10. Hecatomb 04:15
11. Eye for an Eye 07:42
******************************
Total playing time: 45:00




Extended info
Vokal: Gjøran Bårdsen
Gitar: Anders Skjæveland, Tormod Hansen
Bassgitar: Erik Bakke
Trommer: Kristoffer Fikstvedt


Technical info
(IMG:https://metalarea.org/images/spectrogram/2020_Jun/b5cde5ff89280841a17ead27ebc19162.png)
Input File: 05. Descend to Madness.mp3
Channels : 2
Sample Rate : 44100
Precision : 16-bit
Duration : 00:04:42.59 = 12461999 samples = 21193.9 CDDA sectors
File Size : 11.8M
Bit Rate : 334k
Sample Encoding: MPEG audio (layer I, II or III)
Comments :
Title=Descend to Madness
Artist=Ormskrik
Album=Ormskrik
Tracknumber=5/11
Year=2020-20-20
Discnumber=1/1



Register


Go to the top of the page
  Insert nick Quick quote
+Quote Post
 
Start new topic
Replies (1 - 4)
post Jun 5 2020, 18:51:27
Post #2

Четыре Литра
****
Group: Металариец
Posts: 377
Releases: 0
From: Kyiv
On Forums: 9 years 3 months
Thanks: 154 time(s)
Ukraine


грув какой-то


Go to the top of the page
  Insert nick Quick quote
+Quote Post
post Jun 5 2020, 18:55:51
Post #3

Три Литра
***
Group: Завсегдатай
Posts: 234
Releases: 0
On Forums: 1 year 5 months
Thanks: 158 time(s)
Unknown


Для приблэкованного трэша звучит слишком корово по музыке и грувово по вокалу. Мазафакерство короче
Go to the top of the page
  Insert nick Quick quote
+Quote Post
post Jun 11 2020, 21:13:06
Post #4

melofags sniper
**************
Group: Металариец
Posts: 6,296
Releases: 0
On Forums: 13 years 4 months
Thanks: 6945 time(s)
Unknown


There is a small hype around this band but nothing interesting...
Go to the top of the page
  Insert nick Quick quote
+Quote Post
post Jul 15 2020, 15:25:37
Post #5

Пять Литров
*****
Group: Металариец
Posts: 451
Releases: 0
On Forums: 3 years 7 months
Thanks: 79 time(s)
Unknown


QUOTE(babanguida @ Jun 11 2020, 20:13:06) *
There is a small hype around this band but nothing interesting...

Yes, it's just well done. Nothing really interesting.
Go to the top of the page
  Insert nick Quick quote
+Quote Post

Reply to this topicStart new topic
2 User(s) are reading this topic (2 Guests and 0 Anonymous Users)
0 Members:

 



- Lo-Fi Version Support form
Copyrights and abuse reports form
Time is now: 1st August 2021 - 12:40:33