Welcome Guest ( Log In | Register )

> Obscene - The Inhabitable Dark (2020), Old School Death Metal
post Jun 11 2020, 13:05:49
Post #1

Правь статус, ####!111
**************
Group: Металариец
Posts: 26,371
Releases: 18968
From: Г.Харьков
On Forums: 9 years 1 month
Thanks: 378652 time(s)
Unknown


(IMG:https://metalarea.org/images/audiocovers/2020_Jun/acov_tid338820_thumb.jpg)

*Artist: Obscene
*Album: The Inhabitable Dark
*Year: 2020
*Genre: Old School Death Metal
*Country: United States (IMG:https://metalarea.org/forum/style_images/flags/United%20States.png)
*Format: mp3@CBR320kbps
*Size: 76MB

Tracklist:
01. Without Honor and Humanity
02. Bless the Giver of Oblivion
03. All Innocence Burns Here
04. They Delight in Extinction
05. Black Hole of Calcutta
06. Isolated Dumping Grounds
07. This Is He Who Kills
08. The Inhabitable Dark
******************************
Total playing time: 32:44




Extended info
Roy Hayes Bass (2017-present)
See also: ex-Black Goat of the Woods, ex-Tunguska, ex-Kvlthammer, ex-Boddicker, ex-Chinaski
Brandon Howe Drums (2017-present)
See also: Summon the Destroyer, ex-Acheron, ex-Lysura, ex-Venality, Vulturch, ex-Primordium, ex-Vires, ex-Blood Chasm, ex-Voidweaver
Mike Morgan Guitars (2017-present)
See also: Summon the Destroyer, Christ Beheaded, ex-Demiricous
Kyle Shaw Vocals (2017-present)
See also: Chinaski, ex-Tunguska, ex-Blood Chasm, ex-Boddicker


Technical info
(IMG:https://metalarea.org/images/spectrogram/2020_Jun/5801064513f615adf0e4b38314c59e0b.png)
Input File: 05. Black Hole of Calcutta.mp3
Channels : 2
Sample Rate : 44100
Precision : 16-bit
Duration : 00:04:27.04 = 11776508 samples = 20028.1 CDDA sectors
File Size : 10.8M
Bit Rate : 323k
Sample Encoding: MPEG audio (layer I, II or III)
Comments :
Title=Black Hole of Calcutta
Artist=Obscene
Album=The Inhabitable Dark
Tracknumber=5
Year=2020
Genre=OSDM
Discnumber=1



Register


Go to the top of the page
  Insert nick Quick quote
+Quote Post
 
Start new topic
Replies (1 - 3)
post Jun 12 2020, 16:50:46
Post #2

De Mysteriis Dom Sathanas
**************
Group: Металариец
Posts: 4,228
Releases: 63
From: Doom
On Forums: 12 years 11 months
Thanks: 3627 time(s)
Russian Federation


Вокал (IMG:style_emoticons/default/22.gif)
Go to the top of the page
  Insert nick Quick quote
+Quote Post
post Jun 13 2020, 07:41:45
Post #3

Маньяк
**********
Group: Металариец
Posts: 1,040
Releases: 1
From: APATIN, SERBIA, АПАТИН, СЕРБИЯ
On Forums: 13 years 8 months
Thanks: 2308 time(s)



Flac

Register


Go to the top of the page
  Insert nick Quick quote
+Quote Post
post Jun 10 2021, 19:52:42
Post #4

Empty Words
**************
Group: Металариец
Posts: 2,105
Releases: 13
From: Москва
On Forums: 11 years 10 months
Thanks: 2754 time(s)
Russian Federation


ЦИТАТА(RUSP73 @ Jun 12 2020, 18:50:46) *

А что вокал? Просто ещё одному горлодёру в дэт-метале не дают покоя тембры ван Друнена. Достойный пример для подражания. А главное — под стать музыке, ядрёной и забойной. Материал на хорошем, стандартном уровне, но ненапряжный, и за счёт общей бодрости вполне годится для фонового прослушивания.
Go to the top of the page
  Insert nick Quick quote
+Quote Post

Reply to this topicStart new topic
2 User(s) are reading this topic (2 Guests and 0 Anonymous Users)
0 Members:

 



- Lo-Fi Version Support form
Copyrights and abuse reports form
Time is now: 25th June 2021 - 05:29:54