Welcome Guest ( Log In | Register )

> Forod Lad - Chapter: Prologue (2020), Folk Metal
post Jun 12 2020, 19:43:24
Post #1

Правь статус, ####!111
**************
Group: Металариец
Posts: 26,375
Releases: 18969
From: Г.Харьков
On Forums: 9 years 1 month
Thanks: 378711 time(s)
Unknown


(IMG:https://metalarea.org/images/audiocovers/2020_Jun/acov_tid338880_thumb.jpg)

*Artist: Forod Lad
*Album: Chapter: Prologue
*Year: 2020
*Genre: Folk Metal
*Country: Italy (IMG:https://metalarea.org/forum/style_images/flags/Italy.png)
*Format: mp3@CBR320kbps
*Size: 90MB

Tracklist:
1. Horn of War 03:34
2. Il Calderone Della Discordia 04:13
3. The Mad Child Doggerel 07:17
4. Revenge Carillon 05:27
5. A Land Left Behind 05:29
6. Noir Mind Trivia 03:57
7. Chapter: Prologue 07:38
******************************
Total playing time: 37:35




Extended info
Matteo Pegoraro Bass (2015-present)
Francesco Peruzzi Guitars, Vocals (2015-present)
Leonardo Francesconi Guitars (2016-present)
See also: ex-Teuta Retica
Francesca Domirti Vocals (2018-present)



Technical info
(IMG:https://metalarea.org/images/spectrogram/2020_Jun/eef8f1643317e13268f7578efc7b637a.png)
Input File: 03 The Mad Child Doggerel.mp3
Channels : 2
Sample Rate : 44100
Precision : 16-bit
Duration : 00:07:17.55 = 19295911 samples = 32816.2 CDDA sectors
File Size : 18.1M
Bit Rate : 331k
Sample Encoding: MPEG audio (layer I, II or III)
Comments :
Title=The Mad Child Doggerel
Artist=Forod Lad
Album=Chapter: Prologue
Tracknumber=3/7
Year=2020-20-20
Genre=Metal
Discnumber=1/1



Register


Go to the top of the page
  Insert nick Quick quote
+Quote Post
 
Start new topic
Replies (1 - 1)
post Jul 4 2020, 00:19:45
Post #2

FOLK METAL FEVER
**************
Group: Металариец
Posts: 2,222
Releases: 6
From: Kyiv
On Forums: 13 years 7 months
Thanks: 290 time(s)
Ukraine


шлак (IMG:style_emoticons/default/smile2.gif)


Thanks:
(1) RotAnus,
Go to the top of the page
  Insert nick Quick quote
+Quote Post

Reply to this topicStart new topic
2 User(s) are reading this topic (2 Guests and 0 Anonymous Users)
0 Members:

 



- Lo-Fi Version Support form
Copyrights and abuse reports form
Time is now: 25th June 2021 - 11:54:34