Welcome Guest ( Log In | Register )

> Drakkar - X-Rated Reloaded (2012), Power/Speed Metal
post Jun 17 2020, 12:16:20
Post #1

Join my religion, or die
**************
Group: Металариец
Posts: 11,269
Releases: 1901
From: Питера
On Forums: 13 years 4 months
Thanks: 25139 time(s)
Russian Federation


(IMG:https://metalarea.org/images/audiocovers/2020_Jun/acov_tid339048_thumb.jpg)

*Artist: Drakkar
*Album: X-Rated Reloaded
*Year: 2012
*Genre: Power/Speed Metal
*Country: Belgium (IMG:https://metalarea.org/forum/style_images/flags/Belgium.png)
*Format: mp3@CBR320kbps
*Size: 101MB

Tracklist:
01. Rise and Fight 06:35
02. X-Rated 04:59
03. Terminatoro 03:51
04. Forgotten Heroes 03:20
05. Lords of the North 05:34
06. King of Shade 04:25
07. Stand Up 03:13
08. Highlander 04:52
09. You're Not Alone 04:25
10. To My Dead Friends 03:10
******************************
Total playing time: 44:24

Preview 1
(IMG:https://metalarea.org/images/youtube.png)

Technical info
(IMG:https://metalarea.org/images/spectrogram/2020_Jun/90c41e5ce865304058ad44926f4c6a03.png)
Input File: 02 X-Rated.mp3
Channels : 2
Sample Rate : 44100
Precision : 16-bit
Duration : 00:04:59.59 = 13212007 samples = 22469.4 CDDA sectors
File Size : 12.1M
Bit Rate : 323k
Sample Encoding: MPEG audio (layer I, II or III)
Comments :
Title=X-Rated
Artist=Drakkar
Album=2012 X Rated Reload
Tracknumber=02/10
Year=2012
Genre=Power/Speed Metal



Register


Go to the top of the page
  Insert nick Quick quote
+Quote Post
 
Start new topic
Replies (1 - 1)
post Feb 2 2022, 23:14:43
Post #2

Going home. Flying high.
**************
Group: Металариец
Posts: 13,612
Releases: 0
From: The Land of Shadows
On Forums: 16 years 5 months
Thanks: 30425 time(s)
Russian Federation


from web
Register


Thanks:
(1) wreak,
Go to the top of the page
  Insert nick Quick quote
+Quote Post

Reply to this topicStart new topic
2 User(s) are reading this topic (2 Guests and 0 Anonymous Users)
0 Members:

 



- Lo-Fi Version Support form
Copyrights and abuse reports form
Time is now: 28th January 2023 - 13:37:46