Welcome Guest ( Log In | Register )

> И неформату есть предел.

Рэп/хип-хоп/шансон/поп удаляются. Для них есть свои порталы.

> The High Crusade - It's Not What You Think (2010), Rock
post Jun 17 2020, 21:35:25
Post #1

Шесть Литров
******
Group: Металариец
Posts: 690
Releases: 134
On Forums: 1 year 6 months
Thanks: 1677 time(s)
Canada


(IMG:https://metalarea.org/images/audiocovers/2020_Jun/acov_tid339068_thumb.jpg)

*Artist: The High Crusade
*Album: It's Not What You Think
*Year: 2010
*Genre: Rock
*Country: United States (IMG:https://metalarea.org/forum/style_images/flags/United%20States.png)
*Format: mp3@CBR320kbps
*Size: 97MB

Tracklist:
1. Fangs Like Knives 03:14
2. Break Into Pieces 03:23
3. Whatever's Real 03:00
4. Ch. 11 03:31
5. Flight Fight 03:32
6. Fall in Line 02:24
7. The Brim 02:45
8. Tied to the Tracks 03:07
9. Woodward 04:28
10. Pay the Fine 03:42
11. Can't Be Satisfied 02:10
12. Right in the Middle 03:05
13. Leave This World 03:07
******************************
Total playing time: 41:28

Extended info
USA (Detroit,Michigan)

Adam Tatro [drummer]
Chris Plumb [Guitar and Vocals]
Rob Kaminski [Guitar and Vocals]

and
from TNA Impact Wrestling -

Alex Shelley [Vocals]
Chris Sabin [Bass]
Petey Williams [Guitar]


Technical info
(IMG:https://metalarea.org/images/spectrogram/2020_Jun/9c2a299df57e0badc6bdfdd54b98262d.png)
Input File: 01 Fangs Like Knives.mp3
Channels : 2
Sample Rate : 44100
Precision : 16-bit
Duration : 00:03:14.28 = 8567880 samples = 14571.2 CDDA sectors
File Size : 7.93M
Bit Rate : 326k
Sample Encoding: MPEG audio (layer I, II or III)
Comments :
Title=Fangs Like Knives
Artist=The High Crusade
Album=It's Not What You Think
Tracknumber=1
Year=2010



Register


Thanks:
Go to the top of the page
  Insert nick Quick quote
+Quote Post
 
Start new topic
Replies (1 - 1)
post Jun 18 2020, 00:48:13
Post #2

Шесть Литров
******
Group: Металариец
Posts: 690
Releases: 134
On Forums: 1 year 6 months
Thanks: 1677 time(s)
Canada


Register
Go to the top of the page
  Insert nick Quick quote
+Quote Post

Reply to this topicStart new topic
1 User(s) are reading this topic (1 Guests and 0 Anonymous Users)
0 Members:

 



- Lo-Fi Version Support form
Copyrights and abuse reports form
Time is now: 5th August 2020 - 11:50:51