Welcome Guest ( Log In | Register )

> 

Здесь релизы с живыми прямыми ссылками на lossless

> Vile Creature - Glory, Glory! Apathy Took Helm! (2020), Sludge/Drone/Doom Metal (D4)
post Jun 18 2020, 11:52:05
Post #1

Serial Uploader
Group Icon
Group: V.I.P
Posts: 37,277
Releases: 35458
From: Lithuania
On Forums: 12 years 1 month
Thanks: 422460 time(s)
Lithuania


(IMG:https://metalarea.org/images/audiocovers/2020_Jun/acov_tid339088_thumb.jpg)

*Artist: Vile Creature
*Album: Glory, Glory! Apathy Took Helm!
*Year: 2020
*Genre: Sludge/Drone/Doom Metal
*Country: Canada (IMG:https://metalarea.org/forum/style_images/flags/Canada.png)
*Format: mp3@CBR320kbps
*Size: 100MB

Tracklist:
01. Harbinger of Nothing 11:02
02. When the Path Is Unclear 11:05
03. You Who Has Never Slept 07:40
04. Glory! Glory! 06:29
05. Apathy Took Helm! 07:30
******************************
Total playing time: 43:46



(IMG:https://metalarea.org/images/youtube.png)

Technical info
(IMG:https://metalarea.org/images/spectrogram/2020_Jun/8745faad34320954508aeb3967a8cc36.png)
Input File: 2. When the Path is Unclear.mp3
Channels : 2
Sample Rate : 44100
Precision : 16-bit
Duration : 00:00:00.67 = 29327 samples = 49.8759 CDDA sectors
File Size : 26.7M
Bit Rate : 321M
Sample Encoding: MPEG audio (layer I, II or III)
Comments :
Title=When the Path is Unclear
Artist=Vile Creature
Album=Glory, Glory! Apathy Took Helm!
Tracknumber=2
Year=2020
Genre=Sludge Metal
Discnumber=1



Register


Go to the top of the page
  Insert nick Quick quote
+Quote Post
 
Start new topic
Replies (1 - 1)
post Jul 17 2020, 08:33:11
Post #2

Group Icon
Group: S-moderation team
Posts: 15,923
Releases: 1440
From: Zagreb
On Forums: 9 years 5 months
Thanks: 71845 time(s)
Croatia


Register


Thanks:
(2) Ingvar, lollol,
Go to the top of the page
  Insert nick Quick quote
+Quote Post

Reply to this topicStart new topic
1 User(s) are reading this topic (1 Guests and 0 Anonymous Users)
0 Members:

 



- Lo-Fi Version Support form
Copyrights and abuse reports form
Time is now: 5th August 2020 - 12:01:50