Welcome Guest ( Log In | Register )

> Urze - Opus Crudo [demo] (2007), Black Metal/Ambient
post Jun 18 2020, 21:45:53
Post #1

Шесть Литров
******
Group: Металариец
Posts: 628
Releases: 94
On Forums: 14 years 5 months
Thanks: 2371 time(s)
Portugal


(IMG:https://metalarea.org/images/audiocovers/2020_Jun/acov_tid339126_thumb.JPG)

*Artist: Urze
*Album: Opus Crudo [demo]
*Year: 2007
*Genre: Black Metal/Ambient
*Country: Portugal (IMG:https://metalarea.org/forum/style_images/flags/Portugal.png)
*Format: mp3@CBR320kbps
*Size: 95MB

Tracklist:
1. Exórdio 01:37
2. Vagabundos Do Submundo 04:03
3. Atrox Volupia 05:07
4. Lúgubres Eflúvios 03:30
5. Silentium Madrigal 04:41
6. À Luminosa Solidão Dos Astros 18:52
******************************
Total playing time: 37:50

(IMG:https://metalarea.org/images/youtube.png)

Extended info
Tape-rip.


Technical info
(IMG:https://metalarea.org/images/spectrogram/2020_Jun/db789abaca8a953a37b8d8a66ae59f00.png)
Input File: Urze - 02 - Vagabundos Do Submundo.mp3
Channels : 2
Sample Rate : 44100
Precision : 16-bit
Duration : 00:04:03.32 = 10730456 samples = 18249.1 CDDA sectors
File Size : 11.6M
Bit Rate : 380k
Sample Encoding: MPEG audio (layer I, II or III)
Comments :
Title=Vagabundos Do Submundo
Artist=Urze
Album=Exórdio
Tracknumber=2
Year=2007
Genre=138



Register


Go to the top of the page
  Insert nick Quick quote
+Quote Post
 
Start new topic
Replies (1 - 2)
post Jan 25 2023, 23:04:35
Post #2

Шесть Литров
******
Group: Металариец
Posts: 628
Releases: 94
On Forums: 14 years 5 months
Thanks: 2371 time(s)
Portugal


Digital release with a much clearer sound and a different tracklist:

1. Vagabundos Do Submundo 05:46
2. Atrox Volupia 05:07
3. Lúgubres Eflúvios 03:30
4. Silentium Madrigal 04:41
5. À Luminosa Solidão Dos Astros 18:52

MP3 320 Kbps:

Register


Go to the top of the page
  Insert nick Quick quote
+Quote Post
post Jan 26 2023, 11:31:54
Post #3

Forever Underground
**************
Group: Металариец
Posts: 10,739
Releases: 0
On Forums: 7 years 9 months
Thanks: 16228 time(s)
Unknown


Go to the top of the page
  Insert nick Quick quote
+Quote Post

Reply to this topicStart new topic
1 User(s) are reading this topic (1 Guests and 0 Anonymous Users)
0 Members:

 



- Lo-Fi Version Support form
Copyrights and abuse reports form
Time is now: 28th January 2023 - 20:39:21