Welcome Guest ( Log In | Register )

> Inexorum - Moonlit Navigation (2020), Melodic Black/Death Metal
post Jun 25 2020, 12:02:45
Post #1

Правь статус, ####!111
**************
Group: Металариец
Posts: 27,448
Releases: 19929
From: Г.Харьков
On Forums: 9 years 4 months
Thanks: 402401 time(s)
Unknown


(IMG:https://metalarea.org/images/audiocovers/2020_Jun/acov_tid339321_thumb.jpg)

*Artist: Inexorum
*Album: Moonlit Navigation
*Year: 2020
*Genre: Melodic Black/Death Metal
*Country: United States (IMG:https://metalarea.org/forum/style_images/flags/United%20States.png)
*Format: mp3@CBR320kbps
*Size: 100MB

Tracklist:
1. Ouroboric State
2. Moonlit Navigation
3. Dream and Memory
4. Chains of Loss
5. Signal Fires
6. The Breaking Point
7. Wild Magic
8. In Desperate Times
******************************
Total playing time: 42:01




Extended info
Matthew Kirkwold Bass, Vocals (backing) (2018-present)
See also: Antiverse, ex-Majesties
Carl Skildum Guitars, Vocals (lead) (2018-present)
See also: Antiverse, Obsequiae (live), ex-Majesties, ex-Seconds Before, ex-Threadbare


Technical info
(IMG:https://metalarea.org/images/spectrogram/2020_Jun/5f70fe88a0a467052ddfd4c68038fc0d.png)
Input File: 05 Signal Fires.mp3
Channels : 2
Sample Rate : 44100
Precision : 16-bit
Duration : 00:07:02.11 = 18615007 samples = 31658.2 CDDA sectors
File Size : 17.4M
Bit Rate : 330k
Sample Encoding: MPEG audio (layer I, II or III)
Comments :
Title=Signal Fires
Artist=Inexorum
Album=Moonlit Navigation
Tracknumber=5/8
Year=2020-20-20
Genre=Rock
Discnumber=1/1



Register


Go to the top of the page
  Insert nick Quick quote
+Quote Post
 
Start new topic
Replies (1 - 3)
post Jun 26 2020, 19:12:28
Post #2

Перевозчик
**************
Group: Металариец
Posts: 3,323
Releases: 0
On Forums: 13 years 2 months
Thanks: 744 time(s)
Russian Federation


Потыкал треки на бэндкемпе. Ребята явно переоценивают свою экстремальность и очень-очень сильно. В большинстве мест это даже на хэви с павером тянет с трудом, не говоря уж о мелодете. А мелоблека и дета тут вообще кот наплакал, и то с лупой поискать.


Thanks:
Go to the top of the page
  Insert nick Quick quote
+Quote Post
post Jun 27 2020, 07:10:31
Post #3

Ъ
**************
Group: Металариец
Posts: 10,733
Releases: 9
On Forums: 12 years 8 months
Thanks: 2185 time(s)
Sweden


Теги верные, сабж однозначно третьесорт, но вполне неплохой, пару раз я его прогнал, гитарки местами очень неплохие.

ЦИТАТА(zauber1 @ Jun 27 2020, 01:12:28) *
Потыкал треки на бэндкемпе. Ребята явно переоценивают свою экстремальность и очень-очень сильно. В большинстве мест это даже на хэви с павером тянет с трудом, не говоря уж о мелодете. А мелоблека и дета тут вообще кот наплакал, и то с лупой поискать.


↑ - бред.
Go to the top of the page
  Insert nick Quick quote
+Quote Post
post Jun 29 2020, 12:36:43
Post #4

Маньяк
**********
Group: Металариец
Posts: 1,094
Releases: 4
From: Харьков
On Forums: 13 years 1 month
Thanks: 404 time(s)
Ukraine


на Бандкампе ж:
Tags
metal black metal melodic black metal
Go to the top of the page
  Insert nick Quick quote
+Quote Post

Reply to this topicStart new topic
1 User(s) are reading this topic (1 Guests and 0 Anonymous Users)
0 Members:

 



- Lo-Fi Version Support form
Copyrights and abuse reports form
Time is now: 28th September 2021 - 08:18:53