Welcome Guest ( Log In | Register )

Объявления

* gmail.com упорно продолжает считать почту с нас "unsolicited" и отбивает в том числе и письма активации, поэтому просьба использовать альтернативные почтовые ящики.
------------
* gmail.com continues reject all mail from us as "unsolicited" (activation mails too) therefore please use alternate mail servers.
> Mantar - Grungetown Hooligans Ii (2020), Sludge/Black Metal (D6)
post Jun 25 2020, 12:15:07
Post #1

Serial Uploader
Group Icon
Group: V.I.P
Posts: 42,718
Releases: 40781
From: Lithuania
On Forums: 16 years 6 days
Thanks: 523051 time(s)
Lithuania


(IMG:https://metalarea.org/images/audiocovers/2020_Jun/acov_tid339323_thumb.jpg)

*Artist: Mantar
*Album: Grungetown Hooligans Ii
*Year: 2020
*Genre: Sludge/Black Metal
*Country: Germany (IMG:https://metalarea.org/forum/style_images/flags/Germany.png)
*Format: mp3@CBR320kbps
*Size: 56MB

Tracklist:
01. The Bomb (L7 cover) 02:52
02. Puss (The Jesus Lizard cover) 03:10
03. 100% (Sonic Youth cover) 02:21
04. Ghost Highway (Mazzy Star cover) 03:32
05. Can I Run (L7 cover) 03:58
06. Bruise Violet (Babes In Toyland cover) 02:37
07. Who You Drivin' Now (Mudhoney cover) 02:09
08. Knot (7 Year Bitch cover) 03:10
******************************
Total playing time: 23:49



(IMG:https://metalarea.org/images/youtube.png)

Technical info
(IMG:https://metalarea.org/images/spectrogram/2020_Jun/66f60bb9088a53620e46b3adc779f024.png)
Input File: 02 Puss.mp3
Channels : 2
Sample Rate : 44100
Precision : 16-bit
Duration : 00:03:16.92 = 8684216 samples = 14769.1 CDDA sectors
File Size : 7.88M
Bit Rate : 320k
Sample Encoding: MPEG audio (layer I, II or III)
Comments :
Title=Puss
Artist=Mantar
Album=Grungetown Hooligans II
Tracknumber=02/08
Year=2020-20-20
Discnumber=1/1



Register


Go to the top of the page
  Insert nick Quick quote
+Quote Post
 
Start new topic
Replies (1 - 4)
post Jun 26 2020, 07:09:15
Post #2

Четыре Литра
****
Group: Металариец
Posts: 389
Releases: 5
From: Самара
On Forums: 15 years 9 months
Thanks: 358 time(s)
Russian Federation


облога улётная. Я сперва подумал, что это какой-то провинциальный рэп-альбом (IMG:style_emoticons/default/gop_spb.gif)
Go to the top of the page
  Insert nick Quick quote
+Quote Post
post Jun 26 2020, 18:53:46
Post #3

Шесть Литров
******
Group: Металариец
Posts: 602
Releases: 10
From: минск сити
On Forums: 14 years 11 months
Thanks: 1032 time(s)
Belarus


По сути это гранж. И альбом из каверов на всяческий гранж\альтернативный рок, что в эпоху курта кобэйна всплыл. Для разнообразия интересно, но не сказал бы, что это в формат вписывается.
Go to the top of the page
  Insert nick Quick quote
+Quote Post
post Jun 27 2020, 07:23:32
Post #4

Group: Дух
Posts: 1
Releases: 0
On Forums: 6 years 7 months
Thanks: 0 time(s)
Unknown


Gracias
Go to the top of the page
  Insert nick Quick quote
+Quote Post
post Apr 24 2022, 10:47:27
Post #5

Мегаманьяк
***********
Group: Металариец
Posts: 1,839
Releases: 10
On Forums: 15 years 5 months
Thanks: 185 time(s)
Germany


Please, re-upload.


Thanks:
Go to the top of the page
  Insert nick Quick quote
+Quote Post

Reply to this topicStart new topic
1 User(s) are reading this topic (1 Guests and 0 Anonymous Users)
0 Members:

 



- Lo-Fi Version Support form
Copyrights and abuse reports form
Time is now: 13th June 2024 - 04:18:42