Welcome Guest ( Log In | Register )

> Diabolic Oath - Profane Death Exodus (2020), Black/Death Metal
post Jun 26 2020, 12:17:45
Post #1

Правь статус, ####!111
**************
Group: Металариец
Posts: 26,375
Releases: 18969
From: Г.Харьков
On Forums: 9 years 1 month
Thanks: 378699 time(s)
Unknown


(IMG:https://metalarea.org/images/audiocovers/2020_Jun/acov_tid339360_thumb.jpg)

*Artist: Diabolic Oath
*Album: Profane Death Exodus
*Year: 2020
*Genre: Black/Death Metal
*Country: United States (IMG:https://metalarea.org/forum/style_images/flags/United%20States.png)
*Format: mp3@CBR320kbps
*Size: 82MB

Tracklist:
1. Towards Exalted Coronation 03:31
2. Immaculate Conjuration of Infernal Recrudescence 05:10
3. Morbid Ekstasis 04:12
4. Emundationem Flammae 05:50
5. Apocryphal Manifestations 04:29
6. Opening the Gates to Blasphemic Domination 05:09
7. Chalice of Conquering Blood 10:23
******************************
Total playing time: 38:44




Extended info
Chthonian Incursor Unknown
Ominous Void Unknown
The Temple Unknown


Technical info
(IMG:https://metalarea.org/images/spectrogram/2020_Jun/ce94a3cd01d2a827ae5bd542e81e1d0e.png)
Input File: 04. Emundationem Flammae.mp3
Channels : 2
Sample Rate : 44100
Precision : 16-bit
Duration : 00:05:50.77 = 15468869 samples = 26307.6 CDDA sectors
File Size : 14.2M
Bit Rate : 323k
Sample Encoding: MPEG audio (layer I, II or III)
Comments :
Title=Emundationem Flammae
Artist=Diabolic Oath
Album=Profane Death Exodus
Tracknumber=4/7
Year=2020
Discnumber=1/1



Register

Register


Go to the top of the page
  Insert nick Quick quote
+Quote Post
 
Start new topic
Replies (1 - 1)
post Jun 27 2020, 01:09:15
Post #2

\m/
Group Icon
Group: S-moderation team
Posts: 7,932
Releases: 19
From: Петропавловск-Камчатский
On Forums: 12 years 1 week
Thanks: 7984 time(s)
Russian Federation


Added links by Necrokilldozer


Go to the top of the page
  Insert nick Quick quote
+Quote Post

Reply to this topicStart new topic
2 User(s) are reading this topic (2 Guests and 0 Anonymous Users)
0 Members:

 



- Lo-Fi Version Support form
Copyrights and abuse reports form
Time is now: 25th June 2021 - 11:17:09