Welcome Guest ( Log In | Register )

> И неформату есть предел.

Рэп/хип-хоп/шансон/поп удаляются. Для них есть свои порталы.

> Lamp Of Murmuur - Cursed Deambulations Of The Nocturnal Entities [ep] (2020), Dungeon Synth
post Jun 27 2020, 14:20:48
Post #1

Пять Литров
*****
Group: Металариец
Posts: 401
Releases: 80
On Forums: 6 years 9 months
Thanks: 1612 time(s)
Serbia


(IMG:http://metalarea.org/images/audiocovers/2020_Jun/acov_tid339386_thumb.jpg)

*Artist: Lamp Of Murmuur
*Album: Cursed Deambulations Of The Nocturnal Entities [ep]
*Year: 2020
*Genre: Dungeon Synth
*Country: United States (IMG:http://metalarea.org/forum/style_images/flags/United%20States.png)
*Format: mp3@CBR320kbps
*Size: 72MB

Tracklist:
1. To Ravish the Living 03:32
2. Under Murmuur's Command: The Blood Moon Lunacy 09:53
3. Midnight Lust 02:46
4. Romantic Vigil of the Undying 04:38
5. Drowning My Memories in a Sea of Spectral Fog 04:54
6. Morbid Poetry (In the Name of the Levitating Priestess) 05:24
******************************
Total playing time: 31:07



Technical info
(IMG:http://metalarea.org/images/spectrogram/2020_Jun/6a4caf2bd3b7b4adbd15fab018ba3f0f.png)
Input File: Lamp Of Murmuur - Cursed Deambulations Of The Nocturnal Entities (Demo) - 05 Drowning My Memories In A Sea Of Spectral Fog.mp3
Channels : 2
Sample Rate : 44100
Precision : 16-bit
Duration : 00:04:54.70 = 12996402 samples = 22102.7 CDDA sectors
File Size : 11.9M
Bit Rate : 322k
Sample Encoding: MPEG audio (layer I, II or III)
Comments :
Title=Drowning My Memories In A Sea Of Spectral Fog
Artist=Lamp Of Murmuur
Album=Cursed Deambulations Of The Nocturnal Entities (Demo)
Tracknumber=5
Year=2020



Register


Go to the top of the page
  Insert nick Quick quote
+Quote Post
 
Start new topic
Replies (1 - 4)
post Jun 28 2020, 02:40:51
Post #2

Маньяк
**********
Group: Металариец
Posts: 1,039
Releases: 375
On Forums: 9 years 8 months
Thanks: 8711 time(s)
Eritrea


*Genre: Black Metal (IMG:style_emoticons/default/23.gif)
*Genre: Dungeon Synth


Thanks:
Go to the top of the page
  Insert nick Quick quote
+Quote Post
post Jun 28 2020, 11:39:25
Post #3

Два Литра
**
Group: Завсегдатай
Posts: 151
Releases: 0
On Forums: 1 year 2 months
Thanks: 9 time(s)
Russian Federation


В музыке релиза гитар нет в принципе-тэг не оч-то актуален)
Go to the top of the page
  Insert nick Quick quote
+Quote Post
post Jun 28 2020, 12:14:18
Post #4

Trickster
Group Icon
Group: Moderation team
Posts: 4,025
Releases: 318
On Forums: 9 years 5 months
Thanks: 12311 time(s)
Russian Federation


Хоть бы иногда проверяли, чего копипастят (IMG:style_emoticons/default/1488.gif)
Go to the top of the page
  Insert nick Quick quote
+Quote Post
post Jul 2 2020, 10:09:27
Post #5

Правь статус, ####!111
**************
Group: Металариец
Posts: 47,009
Releases: 732
On Forums: 11 years 2 months
Thanks: 39639 time(s)
Russian Federation


Очень даже неплохой данж.
Go to the top of the page
  Insert nick Quick quote
+Quote Post

Reply to this topicStart new topic
1 User(s) are reading this topic (1 Guests and 0 Anonymous Users)
0 Members:

 



- Lo-Fi Version Support form
Copyrights and abuse reports form
Time is now: 5th August 2020 - 10:50:09