Welcome Guest ( Log In | Register )

> И неформату есть предел.

Рэп/хип-хоп/шансон/поп удаляются. Для них есть свои порталы.

> Hollow Ship - Future Remains (2020), 60´s Acid/Psychedelic Rock/Afrobeat
post Jul 2 2020, 11:09:01
Post #1

Правь статус, ####!111
**************
Group: Металариец
Posts: 47,045
Releases: 732
On Forums: 11 years 2 months
Thanks: 39701 time(s)
Russian Federation


(IMG:http://metalarea.org/images/audiocovers/2020_Jul/acov_tid339484_thumb.jpg)

*Artist: Hollow Ship
*Album: Future Remains
*Year: 2020
*Genre: 60´s Acid/Psychedelic Rock/Afrobeat
*Country: Sweden (IMG:http://metalarea.org/forum/style_images/flags/Sweden.png)
*Format: mp3@CBR320kbps
*Size: 92MB

Tracklist:
01. Take Off 05:16
02. We Came Too Late 03:32
03. Agent 05:08
04. Chasing Shadows 03:08
05. Magic Mountain 03:32
06. In the End 02:28
07. Built to Last 01:49
08. Stay Sane 05:40
09. We Were Kings 04:54
10. Air (bonus track) 04:35
******************************
Total playing time: 40:02



Technical info
(IMG:http://metalarea.org/images/spectrogram/2020_Jul/7d90fe6886ed1d469317aacb9128e4c7.png)
Input File: 01 - Take Off.mp3
Channels : 2
Sample Rate : 44100
Precision : 16-bit
Duration : 00:05:16.86 = 13973482 samples = 23764.4 CDDA sectors
File Size : 12.7M
Bit Rate : 322k
Sample Encoding: MPEG audio (layer I, II or III)
Comments :
Title=Take Off
Artist=Hollow Ship
Album=Future Remains
Tracknumber=01/10
Year=2020
Genre=93



Register


Go to the top of the page
  Insert nick Quick quote
+Quote Post
 
Start new topic
Replies (1 - 2)
post Jul 3 2020, 19:10:11
Post #2

Герберт Уэст
**************
Group: Металариец
Posts: 2,367
Releases: 76
From: Поморье
On Forums: 11 years 2 months
Thanks: 5129 time(s)
Russian Federation


Хороши! Душевнейшие товарищи! (IMG:style_emoticons/default/9.gif)


Thanks:
Go to the top of the page
  Insert nick Quick quote
+Quote Post
post Jul 10 2020, 19:08:38
Post #3

Правь статус, ####!111
**************
Group: Металариец
Posts: 47,045
Releases: 732
On Forums: 11 years 2 months
Thanks: 39701 time(s)
Russian Federation


Отличный альбом!
Go to the top of the page
  Insert nick Quick quote
+Quote Post

Reply to this topicStart new topic
1 User(s) are reading this topic (1 Guests and 0 Anonymous Users)
0 Members:

 



- Lo-Fi Version Support form
Copyrights and abuse reports form
Time is now: 11th August 2020 - 17:54:06