Welcome Guest ( Log In | Register )

> И неформату есть предел.

Рэп/хип-хоп/шансон/поп удаляются. Для них есть свои порталы.

 
Reply to this topicStart new topic
> Forndom - Faþir (2020), Neofolk/Ritual Ambient
post Jul 2 2020, 16:32:23
Post #1

...
**************
Group: Металариец
Posts: 3,440
Releases: 1450
From: МЕЩЁРА
On Forums: 12 years 4 months
Thanks: 41848 time(s)
Russian Federation


(IMG:https://metalarea.org/images/audiocovers/2020_Jul/acov_tid339509_thumb.jpg)

*Artist: Forndom
*Album: Faþir
*Year: 2020
*Genre: Neofolk/Ritual Ambient
*Country: Sweden (IMG:https://metalarea.org/forum/style_images/flags/Sweden.png)
*Format: mp3@CBR320kbps
*Size: 105MB

Tracklist:
1. Jakten 05:27
2. Yggdrasil 04:15
3. Finnmarken 04:21
4. Fostersonen 06:28
5. Munin 01:37
6. Hel, Jag Vet Mig Väntar 07:26
7. Hemkomst 05:40
******************************
Total playing time: 35:14




Extended info
+ Scans.



Technical info
(IMG:https://metalarea.org/images/spectrogram/2020_Jul/6d5f160431d4810c3a851479ac8416c9.png)
Input File: 1. Jakten.mp3
Channels : 2
Sample Rate : 44100
Precision : 16-bit
Duration : 00:05:27.07 = 14423963 samples = 24530.5 CDDA sectors
File Size : 13.1M
Bit Rate : 320k
Sample Encoding: MPEG audio (layer I, II or III)
Comments :
Title=Jakten
Artist=Forndom
Album=Fathir
Tracknumber=1
Year=2020
Genre=Neofolk/Ritual Ambient



Register


Go to the top of the page
  Insert nick Quick quote
+Quote Post

Reply to this topicStart new topic
1 User(s) are reading this topic (1 Guests and 0 Anonymous Users)
0 Members:

 



- Lo-Fi Version Support form
Copyrights and abuse reports form
Time is now: 11th August 2020 - 16:37:56