Welcome Guest ( Log In | Register )

> 

Здесь релизы с живыми прямыми ссылками на lossless

> Valgrind - Seal Of Phobos [ep] (2017), Death Metal (D7)
post Jul 3 2020, 15:47:15
Post #1

неделимое
******
Group: Металариец
Posts: 620
Releases: 40
On Forums: 8 years 10 months
Thanks: 1039 time(s)
Russian Federation


(IMG:http://metalarea.org/images/audiocovers/2020_Jul/acov_tid339524_thumb.jpg)

*Artist: Valgrind
*Album: Seal Of Phobos [ep]
*Year: 2017
*Genre: Death Metal
*Country: Italy (IMG:http://metalarea.org/forum/style_images/flags/Italy.png)
*Format: mp3@CBR320kbps
*Size: 42MB

Tracklist:
1. The Endless Circle 04:07
2. New Born Deceit 04:09
3. Prelude To Downfall (Interlude) 00:47
4. Traitors Will Bleed 03:24
5. Ekphora's Day 05:03
******************************
Total playing time: 17:30



Extended info
скачано с bandcamp, спектры оригинальные 320, free from bandcamp


Technical info
(IMG:http://metalarea.org/images/spectrogram/2020_Jul/a44c9033d456b790ec5194104f856d25.png)
Input File: 02 - New Born Deceit.mp3
Channels : 2
Sample Rate : 44100
Precision : 16-bit
Duration : 00:04:09.09 = 10984913 samples = 18681.8 CDDA sectors
File Size : 9.96M
Bit Rate : 320k
Sample Encoding: MPEG audio (layer I, II or III)



Register


Go to the top of the page
  Insert nick Quick quote
+Quote Post
 
Start new topic
Replies (1 - 4)
post Jul 4 2020, 20:04:20
Post #2

Шесть Литров
******
Group: Металариец
Posts: 628
Releases: 0
From: Цимлянск
On Forums: 6 years 2 months
Thanks: 134 time(s)
Russian Federation


Где же 320? спектры в шапке на 16 кГц = апконверт
Go to the top of the page
  Insert nick Quick quote
+Quote Post
post Jul 5 2020, 15:16:33
Post #3

неделимое
******
Group: Металариец
Posts: 620
Releases: 40
On Forums: 8 years 10 months
Thanks: 1039 time(s)
Russian Federation



FLAC (Tracks) 237mb

Register



320 из шапки скачаны с bandcamp, со спектрами флак практически идентичны, вот ссылка на скачивание любого другого формата
все претензии к издающему Everlasting Spew Records


Go to the top of the page
  Insert nick Quick quote
+Quote Post
post Jul 8 2020, 17:01:19
Post #4

Правь статус, ####!111
**************
Group: Металариец
Posts: 3,981
Releases: 14
From: Москва и МО
On Forums: 14 years 1 month
Thanks: 1172 time(s)
Russian Federation


Спасибо за релиз!
Хоть и довольно короткая EP, доставляет массу удовольствия, т.к. группа отличнейшая.


Thanks:
(1) Occultas,
Go to the top of the page
  Insert nick Quick quote
+Quote Post
post Jul 9 2020, 06:41:14
Post #5

Group Icon
Group: S-moderation team
Posts: 16,067
Releases: 1440
From: Zagreb
On Forums: 9 years 5 months
Thanks: 72547 time(s)
Croatia


Register


Thanks:
Go to the top of the page
  Insert nick Quick quote
+Quote Post

Reply to this topicStart new topic
1 User(s) are reading this topic (1 Guests and 0 Anonymous Users)
0 Members:

 



- Lo-Fi Version Support form
Copyrights and abuse reports form
Time is now: 11th August 2020 - 17:38:52