Welcome Guest ( Log In | Register )

> И неформату есть предел.

Рэп/хип-хоп/шансон/поп удаляются. Для них есть свои порталы.

 
Reply to this topicStart new topic
> Wounded Cross - Our Future Is Dead (2020), Hard'n'heavy
post Jul 4 2020, 09:16:48
Post #1

MDM-Thrash Metal
**************
Group: Металариец
Posts: 9,691
Releases: 945
From: Одесса
On Forums: 12 years 11 months
Thanks: 24237 time(s)
Ukraine


(IMG:http://metalarea.org/images/audiocovers/2020_Jul/acov_tid339557_thumb.jpg)

*Artist: Wounded Cross
*Album: Our Future Is Dead
*Year: 2020
*Genre: Hard'n'heavy
*Country: United Kingdom (IMG:http://metalarea.org/forum/style_images/flags/United%20Kingdom.png)
*Format: mp3@CBR320kbps
*Size: 79MB

Tracklist:
1. Our Future Is Dead 01:47 instrumental
2. Shadowplay 03:15
3. Ascension 04:03
4. Ashes 05:20
5. Endless Battle 03:15
6. Tainted Legacy 05:16
7. Rough Spark 03:07
8. Sad Future 02:33
9. Cosmic Annihilation 05:53
******************************
Total playing time: 34:29


(IMG:http://metalarea.org/images/youtube.png)


Technical info
(IMG:http://metalarea.org/images/spectrogram/2020_Jul/3a1b10523e3372df2c7d2694a5bc6c16.png)
Input File: 02_wounded_cross_shadowplay.mp3
Channels : 2
Sample Rate : 44100
Precision : 16-bit
Duration : 00:03:15.31 = 8612951 samples = 14647.9 CDDA sectors
File Size : 7.86M
Bit Rate : 322k
Sample Encoding: MPEG audio (layer I, II or III)
Comments :
Title=Shadowplay
Artist=Wounded Cross
Album=Our Future Is Dead
Tracknumber=2
Year=2020
Genre=Metal
Discnumber=1



Register


Go to the top of the page
  Insert nick Quick quote
+Quote Post

Reply to this topicStart new topic
1 User(s) are reading this topic (1 Guests and 0 Anonymous Users)
0 Members:

 



- Lo-Fi Version Support form
Copyrights and abuse reports form
Time is now: 5th August 2020 - 12:16:56