Welcome Guest ( Log In | Register )

> И неформату есть предел.

Рэп/хип-хоп/шансон/поп удаляются. Для них есть свои порталы.

 
Reply to this topicStart new topic
> Downhill Trend - New World Disorder (2020), Hard'n'heavy
post Jul 4 2020, 09:34:59
Post #1

MDM-Thrash Metal
**************
Group: Металариец
Posts: 9,706
Releases: 959
From: Одесса
On Forums: 13 years 2 days
Thanks: 24529 time(s)
Ukraine


(IMG:http://metalarea.org/images/audiocovers/2020_Jul/acov_tid339558_thumb.jpg)

*Artist: Downhill Trend
*Album: New World Disorder
*Year: 2020
*Genre: Hard'n'heavy
*Country: United States (IMG:http://metalarea.org/forum/style_images/flags/United%20States.png)
*Format: mp3@CBR320kbps
*Size: 83MB

Tracklist:
01. Take Your Turn 02:39
02. Drifter 03:13
03. Untrue 04:21
04. My Mistake 06:05
05. Pick Your Poison 03:45
06. Fragile 04:59
07. The Only Thing 03:11
08. Believe 03:39
09. Moment 04:03
10. Another Kick in the Face 03:06
******************************
Total playing time: 39:01



(IMG:http://metalarea.org/images/youtube.png)

Technical info
(IMG:http://metalarea.org/images/spectrogram/2020_Jul/981acd20badc26e1c26844d18f5cb925.png)
Input File: 02_downhill_trend_drifter.mp3
Channels : 2
Sample Rate : 44100
Precision : 16-bit
Duration : 00:03:13.50 = 8533438 samples = 14512.6 CDDA sectors
File Size : 7.90M
Bit Rate : 327k
Sample Encoding: MPEG audio (layer I, II or III)
Comments :
Title=Drifter
Artist=Downhill Trend
Album=New World Disorder
Tracknumber=2/10
Year=2020
Genre=17
Discnumber=1/1



Register


Go to the top of the page
  Insert nick Quick quote
+Quote Post

Reply to this topicStart new topic
1 User(s) are reading this topic (1 Guests and 0 Anonymous Users)
0 Members:

 



- Lo-Fi Version Support form
Copyrights and abuse reports form
Time is now: 11th August 2020 - 17:46:09