Welcome Guest ( Log In | Register )

> И неформату есть предел.

Рэп/хип-хоп/шансон/поп удаляются. Для них есть свои порталы.

> David Reece - Cacophony Of Souls (2020), Hard'n'heavy
post Jul 4 2020, 09:45:39
Post #1

MDM-Thrash Metal
**************
Group: Металариец
Posts: 9,706
Releases: 959
From: Одесса
On Forums: 13 years 1 day
Thanks: 24529 time(s)
Ukraine


(IMG:http://metalarea.org/images/audiocovers/2020_Jul/acov_tid339559_thumb.jpg)

*Artist: David Reece
*Album: Cacophony Of Souls
*Year: 2020
*Genre: Hard'n'heavy
*Country: United States (IMG:http://metalarea.org/forum/style_images/flags/United%20States.png)
*Format: mp3@CBR320kbps
*Size: 111MB

Tracklist:
1. Chasing the Shadows 03:44
2. Blood on Your Hands 03:17
3. Judgement Day 03:30
4. Collective Anaesthesia 05:22
5. Cacophony of Souls 03:57
6. Another Life Another Time 04:47
7. Metal Voice 03:27
8. Over and Over 03:46
9. Back in the Days 03:44
10. A Perfect World 05:07
11. Bleed 03:37
12. No Disguise 03:49
******************************
Total playing time: 48:07


(IMG:http://metalarea.org/images/youtube.png)
(IMG:http://metalarea.org/images/youtube.png)
(IMG:http://metalarea.org/images/youtube.png)

Extended info
David Reece Vocals
See also: Gypsy Rose, John Steel, ex-Sircle of Silence, Ez Livin', Reece-Kronlund, Sainted Sinners, ex-Accept, ex-Bonfire, ex-Malice, ex-PowerWorld, ex-Sacred Child, ex-Stream, ex-Bangalore Choir, ex-Dare Force, ex-Reece, ex-Tango Down

Line up:

Line-Up:
David Reece-voc.
Andy Susemihl-guitars
Malte Frederik Burkert-bass
Andrea Gianangeli-drums


Technical info
(IMG:http://metalarea.org/images/spectrogram/2020_Jul/1abf484c3956b310f7a14f1905cc95b8.png)
Input File: 02_david_reece_blood_on_your_hands.mp3
Channels : 2
Sample Rate : 44100
Precision : 16-bit
Duration : 00:03:16.82 = 8679762 samples = 14761.5 CDDA sectors
File Size : 8.02M
Bit Rate : 326k
Sample Encoding: MPEG audio (layer I, II or III)
Comments :
Title=Blood on Your Hands
Artist=Reece
Album=Cacophony of Souls
Tracknumber=2
Year=2020
Genre=Rock
Discnumber=1



Register


Go to the top of the page
  Insert nick Quick quote
+Quote Post
 
Start new topic
Replies (1 - 1)
post Today, 11:10:15
Post #2

The Angel Of Death
**************
Group: Металариец
Posts: 5,576
Releases: 49
From: Луганск, 13 регион, экс-404
On Forums: 14 years 8 months
Thanks: 1819 time(s)
Papua New Guinea


Andrew, (IMG:style_emoticons/default/9.gif) (IMG:style_emoticons/default/9.gif) (IMG:style_emoticons/default/9.gif)
Go to the top of the page
  Insert nick Quick quote
+Quote Post

Reply to this topicStart new topic
1 User(s) are reading this topic (1 Guests and 0 Anonymous Users)
0 Members:

 



- Lo-Fi Version Support form
Copyrights and abuse reports form
Time is now: 11th August 2020 - 16:02:48