Welcome Guest ( Log In | Register )

> Pilori - À Nos Morts (2020), Blackened Crust/Grindcore/Hardcore/Death Metal
post Jul 4 2020, 10:55:47
Post #1

𝕻𝕬𝕹𝕬𝕮𝕰𝕬
**********
Group: Металариец
Posts: 1,036
Releases: 615
On Forums: 9 years 11 months
Thanks: 12008 time(s)
Unknown


(IMG:https://metalarea.org/images/audiocovers/2020_Jul/acov_tid339560_thumb.jpg)

*Artist: Pilori
*Album: À Nos Morts
*Year: 2020
*Genre: Blackened Crust/Grindcore/Hardcore/Death Metal
*Country: France (IMG:https://metalarea.org/forum/style_images/flags/France.png)
*Format: mp3@CBR320kbps
*Size: 54MB

Tracklist:
1. Que La Bête Meure (avec Dylan Walker) 03:21
2. Apnée 01:28
3. La Grande Terreur 01:07
4. Poursuite Du Vent (avec Matthias Jungbluth) 02:16
5. Roi Des Rats 00:39
6. À Nos Morts 02:19
7. Lorsque Viendra La Nuit 02:03
8. Divine Comédie 01:31
9. Sous Mes Mains 02:13
10. À La Recherche Du Temps Perdu 03:20
11. Danse Macabre 03:35
******************************
Total playing time: 23:52




Extended info
-Classic edition with a 12" black LP - Outer cardboard sleeve 300g with glossy finish and double-sided printed insert.

-Collector and limited edition (100 copies) with a 12" transparent LP colored in "beer" - Outer cardboard sleeve 300g with glossy finish and double-sided printed insert.

-Colored cassette "vintage bronze" with clear case and two-sided printed J-card.Collector edition ultra-limited to 20 copies.

-Digisleeve CD 2 parts - Cardboard sleeve with glossy finish and golden print.


Technical info
(IMG:https://metalarea.org/images/spectrogram/2020_Jul/afd26946ea645a607148013eabdc307a.png)
Input File: 02 - Apnee.mp3
Channels : 2
Sample Rate : 44100
Precision : 16-bit
Duration : 00:01:28.40 = 3898484 samples = 6630.07 CDDA sectors
File Size : 3.53M
Bit Rate : 320k
Sample Encoding: MPEG audio (layer I, II or III)
Comments :
Title=Apn“©e
Artist=Pilori
Album=“¬ Nos Morts
Tracknumber=2
Year=2020
Genre=Blackened Crust/Grindcore/Hardcore/Death Metal



Register


Go to the top of the page
  Insert nick Quick quote
+Quote Post
 
Start new topic
Replies (1 - 11)
post Jul 5 2020, 13:02:37
Post #2

𝕻𝕬𝕹𝕬𝕮𝕰𝕬
**********
Group: Металариец
Posts: 1,036
Releases: 615
On Forums: 9 years 11 months
Thanks: 12008 time(s)
Unknown






Thanks:
(1) 555,
Go to the top of the page
  Insert nick Quick quote
+Quote Post
post Jul 5 2020, 14:11:49
Post #3

королева бала
*********
Group: Металариец
Posts: 964
Releases: 0
On Forums: 15 years 1 month
Thanks: 678 time(s)
Russian Federation


огонь альбом (IMG:style_emoticons/default/banana.gif)


Thanks:
(1) ingram,
Go to the top of the page
  Insert nick Quick quote
+Quote Post
post Jul 5 2020, 14:30:52
Post #4

Ледоруб
**************
Group: Металариец
Posts: 30,170
Releases: 0
From: Санкт-Петербург
On Forums: 12 years 8 months
Thanks: 10815 time(s)
Russian Federation


Напацея Эстетика начитался? Или Корейского?
Go to the top of the page
  Insert nick Quick quote
+Quote Post
post Jul 7 2020, 07:56:23
Post #5

Пять Литров
*****
Group: Металариец
Posts: 451
Releases: 0
On Forums: 4 years 5 months
Thanks: 83 time(s)
Unknown


Thanks and the videos are fantastic!
Go to the top of the page
  Insert nick Quick quote
+Quote Post
post Jul 8 2020, 11:51:07
Post #6

Два Литра
**
Group: Завсегдатай
Posts: 127
Releases: 5
On Forums: 8 years 3 months
Thanks: 154 time(s)
Serbia


Один из лучших альбомов этого года
Go to the top of the page
  Insert nick Quick quote
+Quote Post
post Jul 10 2020, 06:59:26
Post #7

кручу наждак
**************
Group: Металариец
Posts: 5,522
Releases: 104
From: Самара
On Forums: 12 years 1 week
Thanks: 4360 time(s)
Russian Federation


Если бы весь альбом был в духе 11 трека, тогда да, можно было бы назвать одним из топов года.
Go to the top of the page
  Insert nick Quick quote
+Quote Post
post Jul 10 2020, 07:02:25
Post #8

Ледоруб
**************
Group: Металариец
Posts: 30,170
Releases: 0
From: Санкт-Петербург
On Forums: 12 years 8 months
Thanks: 10815 time(s)
Russian Federation


Зарубка.
Go to the top of the page
  Insert nick Quick quote
+Quote Post
post Nov 3 2020, 02:15:37
Post #9

FOLK METAL FEVER
**************
Group: Металариец
Posts: 2,291
Releases: 6
From: Kyiv
On Forums: 14 years 6 months
Thanks: 300 time(s)
Ukraine


Не зашло. Ожидал лучшего.
Go to the top of the page
  Insert nick Quick quote
+Quote Post
post Nov 15 2020, 21:15:53
Post #10

Ледоруб
**************
Group: Металариец
Posts: 30,170
Releases: 0
From: Санкт-Петербург
On Forums: 12 years 8 months
Thanks: 10815 time(s)
Russian Federation


Скачал благодаря зарубке.
Go to the top of the page
  Insert nick Quick quote
+Quote Post
post Nov 15 2020, 22:11:19
Post #11

Ледоруб
**************
Group: Металариец
Posts: 30,170
Releases: 0
From: Санкт-Петербург
On Forums: 12 years 8 months
Thanks: 10815 time(s)
Russian Federation


...и кол в жoпу тому, кто делал архив.
Go to the top of the page
  Insert nick Quick quote
+Quote Post
post Dec 15 2020, 18:08:07
Post #12

Маньяк
**********
Group: Металариец
Posts: 1,477
Releases: 126
On Forums: 12 years 9 months
Thanks: 1184 time(s)
Kazakhstan


Hexis-worship блэкхака. Но датчане поубедительней
Go to the top of the page
  Insert nick Quick quote
+Quote Post

Reply to this topicStart new topic
1 User(s) are reading this topic (1 Guests and 0 Anonymous Users)
0 Members:

 



- Lo-Fi Version Support form
Copyrights and abuse reports form
Time is now: 25th May 2022 - 05:54:09