Welcome Guest ( Log In | Register )

> И неформату есть предел.

Рэп/хип-хоп/шансон/поп удаляются. Для них есть свои порталы.

> The Ocean Collective - Jurassic | Cretaceous [single] (2020), Post Metal
post Jul 10 2020, 17:33:32
Post #1

Правь статус, ####!111
**************
Group: Металариец
Posts: 47,010
Releases: 732
On Forums: 11 years 2 months
Thanks: 39639 time(s)
Russian Federation


(IMG:http://metalarea.org/images/audiocovers/2020_Jul/acov_tid339734_thumb.jpg)

*Artist: The Ocean Collective
*Album: Jurassic | Cretaceous [single]
*Year: 2020
*Genre: Post Metal
*Country: Germany (IMG:http://metalarea.org/forum/style_images/flags/Germany.png)
*Format: mp3@CBR320kbps
*Size: 31MB

Tracklist:
1. Jurassic | Cretaceous (feat. Jonas Renkse of Katatonia) 13:24
******************************
Total playing time: 13:24

(IMG:http://metalarea.org/images/youtube.png)

Technical info
(IMG:http://metalarea.org/images/spectrogram/2020_Jul/5cc6fc493877d670e50aaa7668ccd375.png)
Input File: The Ocean - Jurassic _ Cretaceous.mp3
Channels : 2
Sample Rate : 44100
Precision : 16-bit
Duration : 00:13:25.04 = 35502132 samples = 60377.8 CDDA sectors
File Size : 32.7M
Bit Rate : 325k
Sample Encoding: MPEG audio (layer I, II or III)
Comments :
Title=Jurassic | Cretaceous
Artist=The Ocean
Album=Jurassic | Cretaceous
Tracknumber=1
Year=2020-07-01
Genre=Metal
Discnumber=1



Register


Go to the top of the page
  Insert nick Quick quote
+Quote Post
 
Start new topic
Replies (1 - 4)
post Jul 12 2020, 10:04:47
Post #2

Правь статус, ####!111
**************
Group: Металариец
Posts: 47,010
Releases: 732
On Forums: 11 years 2 months
Thanks: 39639 time(s)
Russian Federation


Отличная песня от Окияна, да и Ренске не подвел.

Ждем альбомчес.
Go to the top of the page
  Insert nick Quick quote
+Quote Post
post Jul 14 2020, 18:31:04
Post #3

Leegte
***********
Group: Металариец
Posts: 1,628
Releases: 14
From: Kiovia
On Forums: 8 years 3 months
Thanks: 2360 time(s)
Ukraine


Хороший трек, узнаваемый.

Но почему в неформате?


Thanks:
(1) Ghostb,
Go to the top of the page
  Insert nick Quick quote
+Quote Post
post Jul 14 2020, 19:54:41
Post #4

http://rateyourmusic.com/~Ghostb
**************
Group: Металариец
Posts: 2,211
Releases: 0
From: Харьков
On Forums: 10 years 10 months
Thanks: 1033 time(s)
Ukraine


Классная группа и коллаборация с Ренксе на прошлом очень удачной получилась. Но подожду полноформат.
Go to the top of the page
  Insert nick Quick quote
+Quote Post
post Jul 19 2020, 11:38:14
Post #5

Правь статус, ####!111
**************
Group: Металариец
Posts: 47,010
Releases: 732
On Forums: 11 years 2 months
Thanks: 39639 time(s)
Russian Federation


ЦИТАТА(Kwaad @ Jul 14 2020, 20:31:04) *
Но почему в неформате?


Кстати да.
Go to the top of the page
  Insert nick Quick quote
+Quote Post

Reply to this topicStart new topic
1 User(s) are reading this topic (1 Guests and 0 Anonymous Users)
0 Members:

 



- Lo-Fi Version Support form
Copyrights and abuse reports form
Time is now: 5th August 2020 - 12:11:16