Welcome Guest ( Log In | Register )

> 

Здесь релизы с живыми прямыми ссылками на lossless

> Odal - Zornes Heimat (Rough Mix) [demo] (2019), Pagan Black Metal (D)
post Jul 10 2020, 18:24:20
Post #1

Правь статус, ####!111
**************
Group: Металариец
Posts: 2,291
Releases: 1011
From: Гиперборе́я
On Forums: 9 years 8 months
Thanks: 21774 time(s)
Russian Federation


(IMG:http://metalarea.org/images/audiocovers/2020_Jul/acov_tid339736_thumb.jpg)

*Artist: Odal
*Album: Zornes Heimat (Rough Mix) [demo]
*Year: 2019
*Genre: Pagan Black Metal
*Country: Germany (IMG:http://metalarea.org/forum/style_images/flags/Germany.png)
*Format: mp3@CBR320kbps
*Size: 117MB

Tracklist:
01.Brennender Himmel 07:56
02 Tosende Flut 07:54
03.Feuers Kraft 08:39
04 Tausend Wüsten 06:57
05.In Wolken Zerwühlt 06:40
06.Grau Mit Finstrer Gestalt 07:00
07.In Kalten Zornes Heimat 06:53
******************************
Total playing time: 51:59



Technical info
(IMG:http://metalarea.org/images/spectrogram/2020_Jul/f8ff1c5afed362719fefcb49bd56b82b.png)
Input File: Odal - Zornes Heimat (Rough Mix) - 03 Feuers Kraft.mp3
Channels : 2
Sample Rate : 44100
Precision : 16-bit
Duration : 00:08:39.92 = 22928340 samples = 38993.8 CDDA sectors
File Size : 20.9M
Bit Rate : 321k
Sample Encoding: MPEG audio (layer I, II or III)
Comments :
Title=Feuers Kraft
Artist=Odal
Album=Zornes Heimat (Rough Mix)
Tracknumber=3
Year=2019



Register


Go to the top of the page
  Insert nick Quick quote
+Quote Post
 
Start new topic
Replies (1 - 5)
post Jul 10 2020, 20:16:32
Post #2

Маньяк
**********
Group: Металариец
Posts: 1,263
Releases: 0
From: Canada
On Forums: 7 years 8 months
Thanks: 779 time(s)
Canada


Clic Bandcamp link above.
Clic Buy Digital Album, Name your price.
Enter 0, download flac.


Go to the top of the page
  Insert nick Quick quote
+Quote Post
post Jul 10 2020, 22:14:03
Post #3

ZEHTAN!
******
Group: Металариец
Posts: 644
Releases: 30
From: Germany
On Forums: 14 years 5 months
Thanks: 1123 time(s)
Germany


QUOTE
"Ladies and Gentlemen... here we go...

To thank all you people for your support over the past 20 fucking years, we/Odal would like to give you something back!

We've got a never released freebie for you to stream or download!

This is a pre-mix of the full "Zornes Heimat" album recording that was mixed by the band before we chose to enter the Blue House Studio, back in 2008, to mix the album in a professional studio. The recording is without the basslines, because the mix is also the one that Wolfhetan got to write his Bass parts for the album.
However, I like this mix very much.
Every time I listen to this version, I feel that time (the pure and raw energy we had at that moment).
It was a great time for us, me/Taaken and Grroll. We were so much into the music and as motivated as we ever were and will be.

At this time, I was also active in many other projects and I miss this time so much.
So I'm a bit nostalgic while I'm searching for the right words for this recording.
Because we're older now and time is a thing we don't have as much of as we would like...
... Alright then, enough talking...

We'd just like to thank you all for you eternal support!

Oh fuck just listen it loud and heavy...

/Taaken"


Go to the top of the page
  Insert nick Quick quote
+Quote Post
post Jul 11 2020, 10:45:12
Post #4

Шесть Литров
******
Group: Металариец
Posts: 626
Releases: 0
From: Цимлянск
On Forums: 6 years 2 months
Thanks: 134 time(s)
Russian Federation


Где 320? В заголовке спектры же сам показал....
Go to the top of the page
  Insert nick Quick quote
+Quote Post
post Jul 11 2020, 13:32:20
Post #5

Правь статус, ####!111
**************
Group: Металариец
Posts: 2,291
Releases: 1011
From: Гиперборе́я
On Forums: 9 years 8 months
Thanks: 21774 time(s)
Russian Federation


ЦИТАТА(Veggr @ 11th July 2020 - 10:45:12) *
Где 320? В заголовке спектры же сам показал....

Бери с бэндкампа бесплатно там такие же спектры


Go to the top of the page
  Insert nick Quick quote
+Quote Post
post Jul 11 2020, 14:14:12
Post #6

Forever Underground
**************
Group: Металариец
Posts: 7,183
Releases: 0
On Forums: 5 years 3 months
Thanks: 9185 time(s)
Unknown


QUOTE(Veggr @ Jul 11 2020, 11:45:12) *

Lossless
Register


Go to the top of the page
  Insert nick Quick quote
+Quote Post

Reply to this topicStart new topic
1 User(s) are reading this topic (1 Guests and 0 Anonymous Users)
0 Members:

 



- Lo-Fi Version Support form
Copyrights and abuse reports form
Time is now: 5th August 2020 - 12:32:38