Welcome Guest ( Log In | Register )

> И неформату есть предел.

Рэп/хип-хоп/шансон/поп удаляются. Для них есть свои порталы.

> Static-X - Project Regeneration, Vol. 1 (2020), Industrial/Nu Metal (D6)
post Jul 11 2020, 06:56:18
Post #1

Don't be negative.
**************
Group: Металариец
Posts: 2,859
Releases: 754
From: Earthmother
On Forums: 9 years 10 months
Thanks: 10118 time(s)
Ukraine


(IMG:http://metalarea.org/images/audiocovers/2020_Jul/acov_tid339744_thumb.jpg)

*Artist: Static-X
*Album: Project Regeneration, Vol. 1
*Year: 2020
*Genre: Industrial/Nu Metal
*Country: United States (IMG:http://metalarea.org/forum/style_images/flags/United%20States.png)
*Format: mp3@CBR320kbps
*Size: 93MB

Tracklist:
01. Regeneration 01:00
02. Hollow (Project Regeneration) 02:41
03. Worth Dyin For 03:26
04. Terminator Oscillator 03:13
05. All These Years 03:56
06. Accelerate 02:48
07. Bring You Down (Project Regeneration) 03:35
08. My Destruction 03:29
09. Something of My Own (Project Regeneration) 02:52
10. Otsego Placebo 04:20
11. Follow 03:08
12. Dead Souls 04:44
******************************
Total playing time: 39:12


(IMG:http://metalarea.org/images/youtube.png)
(IMG:http://metalarea.org/images/youtube.png)
(IMG:http://metalarea.org/images/youtube.png)

Extended info


Technical info
(IMG:http://metalarea.org/images/spectrogram/2020_Jul/eda9f094bb201da8056f57040c0fbd88.png)
Input File: 02 - Hollow (Project Regeneration).mp3
Channels : 2
Sample Rate : 44100
Precision : 16-bit
Duration : 00:02:41.94 = 7141510 samples = 12145.4 CDDA sectors
File Size : 7.73M
Bit Rate : 382k
Sample Encoding: MPEG audio (layer I, II or III)
Comments :
Title=Hollow (Project Regeneration)
Artist=Static-X
Album=Project Regeneration, Vol. 1
Tracknumber=2/12
Year=2020
Genre=19
Discnumber=1/1



Register


Go to the top of the page
  Insert nick Quick quote
+Quote Post
 
Start new topic
Replies (1 - 1)
post Jul 12 2020, 09:57:56
Post #2

Шесть Литров
******
Group: Металариец
Posts: 675
Releases: 1
From: Россия, Санкт-Петербург
On Forums: 12 years 2 months
Thanks: 89 time(s)
Russian Federation


Вполне неплохо для реюниона. Не Шэдоу зон, конечно, но альбом неплох.
Go to the top of the page
  Insert nick Quick quote
+Quote Post

Reply to this topicStart new topic
1 User(s) are reading this topic (1 Guests and 0 Anonymous Users)
0 Members:

 



- Lo-Fi Version Support form
Copyrights and abuse reports form
Time is now: 11th August 2020 - 16:46:42