Welcome Guest ( Log In | Register )

> И неформату есть предел.

Рэп/хип-хоп/шансон/поп удаляются. Для них есть свои порталы.

 
Reply to this topicStart new topic
> Nordvargr - Kατάδεσμος (2020), Dark Ambient (D28)
post Jul 11 2020, 14:10:07
Post #1

Into the Nothing
***********
Group: Металариец
Posts: 1,890
Releases: 17
On Forums: 10 years 8 months
Thanks: 3909 time(s)
Russian Federation


(IMG:http://metalarea.org/images/audiocovers/2020_Jul/acov_tid339749_thumb.jpg)

*Artist: Nordvargr
*Album: Kατάδεσμος
*Year: 2020
*Genre: Dark Ambient
*Country: Sweden (IMG:http://metalarea.org/forum/style_images/flags/Sweden.png)
*Format: mp3@CBR320kbps
*Size: 118MB

Tracklist:
1. Blood For Bazagrah 09:24
2. Aion Curse Caster 06:32
3. The Rävåsen-Fibbetorp Axis 10:22
4. The Anthropophagus Link (Spit On Him In the Fire) 10:06
5. Psychadelic Warfare In Green 10:13
6. Ectoplasmic Charge 04:20
******************************
Total playing time: 50:57



Extended info
"Katadesmos" is an album based upon recordings gathered over almost 20 years and is a massive experience, filled with Nordvargr´s trademark dark ambient soundscapes and deep esoteric themes as well as some vocal works reminiscent of his latest albums "Metempsychosis" and "Daath" (Zazen Sounds)


Technical info
(IMG:http://metalarea.org/images/spectrogram/2020_Jul/6c2a6d8df1e1d44389d334be39464a9f.png)
Input File: 02 - Aion Curse Caster.mp3
Channels : 2
Sample Rate : 44100
Precision : 16-bit
Duration : 00:06:32.96 = 17329448 samples = 29471.9 CDDA sectors
File Size : 15.9M
Bit Rate : 323k
Sample Encoding: MPEG audio (layer I, II or III)
Comments :
Title=Aion Curse Caster
Artist=Nordvargr
Album=Kατάδεσμος
Tracknumber=02/06
Year=2020
Genre=Ritual, Ambient



Register


Go to the top of the page
  Insert nick Quick quote
+Quote Post

Reply to this topicStart new topic
1 User(s) are reading this topic (1 Guests and 0 Anonymous Users)
0 Members:

 



- Lo-Fi Version Support form
Copyrights and abuse reports form
Time is now: 5th August 2020 - 12:17:57