Welcome Guest ( Log In | Register )

> Waal - The Chasm [ep] (2020), Black Metal
post Jul 13 2020, 13:54:27
Post #1

Правь статус, ####!111
Group Icon
Group: V.I.P
Posts: 4,664
Releases: 318
On Forums: 10 years 4 months
Thanks: 13238 time(s)
Russian Federation


(IMG:https://metalarea.org/images/audiocovers/2020_Jul/acov_tid339804_thumb.jpg)

*Artist: Waal
*Album: The Chasm [ep]
*Year: 2020
*Genre: Black Metal
*Country: Iceland (IMG:https://metalarea.org/forum/style_images/flags/Iceland.png)
*Format: mp3@CBR320kbps
*Size: 78MB

Tracklist:
1. Stream of the Anhydrous Basin 10:57
2. Gnarled Hearts 12:00
3. The Chasm 08:40
******************************
Total playing time: 31:37



Extended info
Personal purchase


Technical info
(IMG:https://metalarea.org/images/spectrogram/2020_Jul/adb8b7f297bd48e26853f5549befe48f.png)
Input File: Waal - The Chasm - 02 Gnarled Hearts.mp3
Channels : 2
Sample Rate : 44100
Precision : 16-bit
Duration : 00:12:00.60 = 31778504 samples = 54045.1 CDDA sectors
File Size : 29.0M
Bit Rate : 322k
Sample Encoding: MPEG audio (layer I, II or III)
Comments :
Title=Gnarled Hearts
Artist=Waal
Album=The Chasm
Tracknumber=2
Year=2020



Register


Go to the top of the page
  Insert nick Quick quote
+Quote Post
 
Start new topic
Replies (1 - 6)
post Jul 13 2020, 18:36:03
Post #2

дьявол воплоти
**********
Group: Металариец
Posts: 1,070
Releases: 7
On Forums: 10 years 9 months
Thanks: 1401 time(s)
Ukraine


оголтелый, наглухо отбитый атмосферик. кайф.


Go to the top of the page
  Insert nick Quick quote
+Quote Post
post Jul 13 2020, 18:43:02
Post #3

Правь статус, ####!111
Group Icon
Group: V.I.P
Posts: 4,664
Releases: 318
On Forums: 10 years 4 months
Thanks: 13238 time(s)
Russian Federation


tormoz, Давненько за ними слежу. С новым релизом так захотелось их поддержать, что купил новый и два старых
Go to the top of the page
  Insert nick Quick quote
+Quote Post
post Jul 13 2020, 18:46:25
Post #4

дьявол воплоти
**********
Group: Металариец
Posts: 1,070
Releases: 7
On Forums: 10 years 9 months
Thanks: 1401 time(s)
Ukraine


ЦИТАТА(Daale @ Jul 13 2020, 18:43:02) *
tormoz, Давненько за ними слежу. С новым релизом так захотелось их поддержать, что купил новый и два старых


самый первый, насколько я помню, слегка напоминает работы BBH, на втором и здесь градус безумия повыше.
Go to the top of the page
  Insert nick Quick quote
+Quote Post
post Jul 13 2020, 18:50:47
Post #5

Правь статус, ####!111
Group Icon
Group: V.I.P
Posts: 4,664
Releases: 318
On Forums: 10 years 4 months
Thanks: 13238 time(s)
Russian Federation


tormoz, Да, с каждым разом они все больше преисполнялись. Мне вот второй да, более изощренным кажется, нежели первый. Первый, он такой, прямолинейный, все дела. Но тоже хорошо.
Go to the top of the page
  Insert nick Quick quote
+Quote Post
post Jul 14 2020, 05:34:21
Post #6

градусы контрастов
**************
Group: Металариец
Posts: 4,991
Releases: 0
On Forums: 5 years 4 months
Thanks: 3232 time(s)
Unknown


помню первый, безысходность в нем просто зашкаливала, на втором уже ненужный прогресс и прочие ю тач май диссонансный талала.
впрочем как и здесь, мне тут слушать нечего.
жаль.


Thanks:
Go to the top of the page
  Insert nick Quick quote
+Quote Post
post Jun 11 2021, 10:03:44
Post #7

antithesis
**************
Group: Металариец
Posts: 3,362
Releases: 35
From: VRN
On Forums: 11 years 3 weeks
Thanks: 2159 time(s)
Russian Federation


занятные диссонансные кружева, без тотального мрака, но с нагнетанием.
Go to the top of the page
  Insert nick Quick quote
+Quote Post

Reply to this topicStart new topic
1 User(s) are reading this topic (1 Guests and 0 Anonymous Users)
0 Members:

 



- Lo-Fi Version Support form
Copyrights and abuse reports form
Time is now: 18th June 2021 - 06:20:50