Welcome Guest ( Log In | Register )

> И неформату есть предел.

Рэп/хип-хоп/шансон/поп удаляются. Для них есть свои порталы.

> Desiderii Marginis - Serenity/Rage [ep] (2020), Dark Ambient (D11)
post Jul 13 2020, 15:23:22
Post #1

Into the Nothing
***********
Group: Металариец
Posts: 1,890
Releases: 17
On Forums: 10 years 8 months
Thanks: 3909 time(s)
Russian Federation


(IMG:http://metalarea.org/images/audiocovers/2020_Jul/acov_tid339817_thumb.jpg)

*Artist: Desiderii Marginis
*Album: Serenity/Rage [ep]
*Year: 2020
*Genre: Dark Ambient
*Country: Sweden (IMG:http://metalarea.org/forum/style_images/flags/Sweden.png)
*Format: mp3@CBR320kbps
*Size: 85MB

Tracklist:
1. I Was Destroying Icons 05:51
2. Necrose Evangelicum 05:32
3. New Flesh On the Demon Cold 07:12
4. Psychogeography 04:48
5. I Think It Was A Sunday 06:30
6. The Hours Of Darkness 06:41
******************************
Total playing time: 36:34



Extended info
"Serenity/Rage" is an album on the subject of the contradictory human capacity to do both good and evil, for clarity and insight as well as blind overwhelming rage; and how we find ourselves moving back and forth across this vast expanse of human emotion.


Technical info
(IMG:http://metalarea.org/images/spectrogram/2020_Jul/44d1662c8668010dd193a8dbeca6b8e4.png)
Input File: 01 - Desiderii Marginis - I Was Destroying Icons.mp3
Channels : 2
Sample Rate : 44100
Precision : 16-bit
Duration : 00:05:51.71 = 15510235 samples = 26378 CDDA sectors
File Size : 14.3M
Bit Rate : 325k
Sample Encoding: MPEG audio (layer I, II or III)
Comments :
Title=I Was Destroying Icons
Artist=Desiderii Marginis
Album=Serenity/Rage
Tracknumber=01/06
Year=2020
Genre=Dark Ambient



Register


Go to the top of the page
  Insert nick Quick quote
+Quote Post
 
Start new topic
Replies (1 - 1)
post Jul 22 2020, 22:06:46
Post #2

####!111
**************
Group: Металариец
Posts: 4,101
Releases: 127
From: The Mountain Of DOOM
On Forums: 12 years 9 months
Thanks: 5626 time(s)
Russian Federation


Наличие болтовни в каждом треке напрягает
Go to the top of the page
  Insert nick Quick quote
+Quote Post

Reply to this topicStart new topic
1 User(s) are reading this topic (1 Guests and 0 Anonymous Users)
0 Members:

 



- Lo-Fi Version Support form
Copyrights and abuse reports form
Time is now: 5th August 2020 - 11:14:55