Welcome Guest ( Log In | Register )

Объявления

* gmail.com упорно продолжает считать почту с нас "unsolicited" и отбивает в том числе и письма активации, поэтому просьба использовать альтернативные почтовые ящики.
------------
* gmail.com continues reject all mail from us as "unsolicited" (activation mails too) therefore please use alternate mail servers.

> 

Здесь релизы с живыми прямыми ссылками на lossless

> Wolfsburg - Ein Verlorener, Vergessener, Grausamer Werwolf [compilation] (2018), Black Metal (D4)
post Jul 17 2020, 05:54:58
Post #1

Правь статус, ####!111
**************
Group: Металариец
Posts: 2,299
Releases: 1011
From: Гиперборе́я
On Forums: 13 years 6 months
Thanks: 22155 time(s)
Russian Federation


(IMG:http://metalarea.org/images/audiocovers/2020_Jul/acov_tid339899_thumb.jpg)

*Artist: Wolfsburg
*Album: Ein Verlorener, Vergessener, Grausamer Werwolf [compilation]
*Year: 2018
*Genre: Black Metal
*Country: Germany (IMG:http://metalarea.org/forum/style_images/flags/Germany.png)
*Format: mp3@CBR320kbps
*Size: 102MB

Tracklist:
01. Intro 00:43
02. Vollmondjagd 05:09
03. Weltenbrand 05:42
04. Ein Verlorener, Vergessener, Trauriger Geist (Burzum Cover) 11:08
05. Trollkraft 04:50
06. Gestaltenwandlers Zorn 04:04
07. Sitzend Auf Dem Werwolf Thron 02:22
08. Swafneis 03:04
09. Zerschmetterer 02:55
10. Ein Verlorener, Vergessener, Trauriger Geist (In Your Face Version) 05:26
******************************
Total playing time: 45:23

(IMG:http://metalarea.org/images/youtube.png)

Technical info
(IMG:http://metalarea.org/images/spectrogram/2020_Jul/0dc5577d36d3436c69f757ea242e75ef.png)
Input File: 10 - Ein Verlorener, Vergessener, Trauriger Geist (In Your Face Version).mp3
Channels : 2
Sample Rate : 44100
Precision : 16-bit
Duration : 00:05:25.99 = 14376159 samples = 24449.2 CDDA sectors
File Size : 13.1M
Bit Rate : 321k
Sample Encoding: MPEG audio (layer I, II or III)
Comments :
Title=Ein Verlorener, Vergessener, Trauriger Geist (In Your Face Version)
Artist=Wolfsburg
Album=Ein Verlorener, Vergessener, Grausamer Werwolf (Compilation)
Tracknumber=10/10
Year=2018
Genre=Black Metal



Register


Go to the top of the page
  Insert nick Quick quote
+Quote Post
 
Start new topic
Replies (1 - 5)
post Jul 19 2020, 14:38:16
Post #2

Шесть Литров
******
Group: Металариец
Posts: 509
Releases: 18
On Forums: 10 years 8 months
Thanks: 826 time(s)
Iceland


The band from Ronald Möbus, also known as Wolf from the band Absurd. if your uploading music from such well known nazi musicians, why not other nazi bands from the RAC scene? I´m sure many people here would apprectiate it.
Go to the top of the page
  Insert nick Quick quote
+Quote Post
post Jul 19 2020, 14:46:06
Post #3

Шесть Литров
******
Group: Металариец
Posts: 501
Releases: 9
From: UA
On Forums: 16 years 3 months
Thanks: 1034 time(s)
Ukraine


ЦИТАТА(Kvlt @ Jul 19 2020, 16:38:16) *
The band from Ronald Möbus, also known as Wolf from the band Absurd. if your uploading music from such well known nazi musicians, why not other nazi bands from the RAC scene? I´m sure many people here would apprectiate it.

Stop kidding around, there is not a single hint of that ideology in Wolfsburg's lyrics.


Go to the top of the page
  Insert nick Quick quote
+Quote Post
post Jul 20 2020, 22:39:14
Post #4

Шесть Литров
******
Group: Металариец
Posts: 509
Releases: 18
On Forums: 10 years 8 months
Thanks: 826 time(s)
Iceland


QUOTE(dalex @ Jul 19 2020, 15:46:06) *
Stop kidding around, there is not a single hint of that ideology in Wolfsburg's lyrics.


Are you stupid or what? Ronald Möbus is the brother from one of the most known neo-nazis in the whole Europe...Hendrik Möbus. He and Hendrik are the founders of the band Absurd. He translated for Abyssic Hate one Absurd song, which Abbysic Hate covered. He and Hendrik are also the operators behind Darker Than Black Records, also Ronald is a supporter of Blood & Honour and operator of Nebelfee Klangwerke (or was, it`s not really clear). Wolfsburg is a neo-nazi band and everyone who denies it is a stupid fucking idiot and a liar (who even lies to himself). If you people have at least a minimum of honor, then stand by that what it is and don`t hide facts. I`m for more then 2 decades in the neo-nazi scene and you shitheads have no fucking balls.
Go to the top of the page
  Insert nick Quick quote
+Quote Post
post Jul 24 2020, 09:15:51
Post #5

Правь статус, ####!111
Group Icon
Group: S-moderation team
Posts: 22,058
Releases: 1443
On Forums: 13 years 3 months
Thanks: 127965 time(s)
Unknown


Register


Go to the top of the page
  Insert nick Quick quote
+Quote Post
post Jul 25 2020, 15:55:20
Post #6

Правь статус, ####!111
**************
Group: Металариец
Posts: 4,852
Releases: 41
On Forums: 6 years 6 months
Thanks: 14922 time(s)
Unknown


мне абсолютно не понравилось. слишком хаотично звучит. кстати pegida - неплохой сцене релизер. он отштудировал недавно релизы Absurd что то за счет веб поиска и за счет собственных релизов для публикации на сцене.дело хорошее если не сказать что замечательное..
Go to the top of the page
  Insert nick Quick quote
+Quote Post

Reply to this topicStart new topic
2 User(s) are reading this topic (2 Guests and 0 Anonymous Users)
0 Members:

 



- Lo-Fi Version Support form
Copyrights and abuse reports form
Time is now: 28th May 2024 - 17:08:29