Welcome Guest ( Log In | Register )

> Elixir - Power Will Let You Fall [demo] (1985), Heavy/Power Metal (D)
post Jul 17 2020, 13:54:49
Post #1

Подвал
**************
Group: Металариец
Posts: 16,247
Releases: 9310
From: Far East (Khabarovsk)
On Forums: 12 years 7 months
Thanks: 105719 time(s)
Russian Federation


(IMG:http://metalarea.org/images/audiocovers/2020_Jul/acov_tid339914_thumb.PNG)

*Artist: Elixir
*Album: Power Will Let You Fall [demo]
*Year: 1985
*Genre: Heavy/Power Metal
*Country: Netherlands (IMG:http://metalarea.org/forum/style_images/flags/Netherlands.png)
*Format: mp3@CBR192kbps
*Size: 37MB

Tracklist:
1. Elixir 06:12
2. Riggler 05:44
3. Micropyle 04:51
4. Red Death 04:44
5. Warlord 05:23
******************************
Total playing time: 26:54

Technical info
(IMG:http://metalarea.org/images/spectrogram/2020_Jul/2d1be0d36c2752d6965aa399e2ec49c7.png)
Input File: 01-Elixir.mp3
Channels : 2
Sample Rate : 44100
Precision : 16-bit
Duration : 00:06:12.21 = 16414417 samples = 27915.7 CDDA sectors
File Size : 8.93M
Bit Rate : 192k
Sample Encoding: MPEG audio (layer I, II or III)
Comments :
Title=Elixir
Artist=Elixir (Hol)
Album=Power Will Let You Fall (Demo)
Tracknumber=01
Year=1985
Genre=Heavy Metal



Register


Go to the top of the page
  Insert nick Quick quote
+Quote Post
 
Start new topic
Replies (1 - 1)
post Feb 3 2021, 17:57:10
Post #2

Group: Подсевший
Posts: 40
Releases: 0
From: Киев
On Forums: 15 years 7 months
Thanks: 16 time(s)
Ukraine


Рип с Ютуба?
Go to the top of the page
  Insert nick Quick quote
+Quote Post

Reply to this topicStart new topic
1 User(s) are reading this topic (1 Guests and 0 Anonymous Users)
0 Members:

 



- Lo-Fi Version Support form
Copyrights and abuse reports form
Time is now: 19th September 2021 - 17:33:23