Welcome Guest ( Log In | Register )

> И неформату есть предел.

Рэп/хип-хоп/шансон/поп удаляются. Для них есть свои порталы.

> Scarecrow - Scarecrow (2019), Doom Metal/Progressive Rock (D8)
post Jul 17 2020, 22:23:20
Post #1

Правь статус, ####!111
**************
Group: Металариец
Posts: 47,043
Releases: 732
On Forums: 11 years 2 months
Thanks: 39701 time(s)
Russian Federation


(IMG:http://metalarea.org/images/audiocovers/2020_Jul/acov_tid339929_thumb.jpg)

*Artist: Scarecrow
*Album: Scarecrow
*Year: 2019
*Genre: Doom Metal/Progressive Rock
*Country: Russian Federation (IMG:http://metalarea.org/forum/style_images/flags/Russian%20Federation.png)
*Format: mp3@CBR320kbps
*Size: 82MB

Tracklist:
1. Scarecrow Overture 04:38
2. The Journey 05:00
3. The Final Problem 05:21
4. When The Powers Of Evil Are Exalted 03:36
5. Worm of Anger 02:47
6. Autumn Wood 03:06
7. Madman 05:15
8. Scarecrow 06:22
******************************
Total playing time: 36:05



Technical info
(IMG:http://metalarea.org/images/spectrogram/2020_Jul/1a431debff67836188d3c2f659a46ac0.png)
Input File: 01 Scarecrow Overture.mp3
Channels : 2
Sample Rate : 44100
Precision : 16-bit
Duration : 00:04:38.68 = 12289876 samples = 20901.1 CDDA sectors
File Size : 11.2M
Bit Rate : 320k
Sample Encoding: MPEG audio (layer I, II or III)
Comments :
Title=Scarecrow Overture
Artist=Scarecrow
Album=Scarecrow
Tracknumber=01/08
Year=2019
Genre=Heavy Psych/Heavy Metal/Progressive Rock/Traditional Doom Metal/Symphonic Metal



Register


Go to the top of the page
  Insert nick Quick quote
+Quote Post
 
Start new topic
Replies (1 - 5)
post Jul 18 2020, 08:11:19
Post #2

####!111
**************
Group: Металариец
Posts: 4,107
Releases: 127
From: The Mountain Of DOOM
On Forums: 12 years 10 months
Thanks: 5640 time(s)
Russian Federation


Кстати неплохо по меркам дум-рока - есть разнообразие. Вокал неплох, но харизмы не хватает.
Go to the top of the page
  Insert nick Quick quote
+Quote Post
post Jul 18 2020, 09:32:50
Post #3

Правь статус, ####!111
**************
Group: Металариец
Posts: 47,043
Releases: 732
On Forums: 11 years 2 months
Thanks: 39701 time(s)
Russian Federation


Отличный релиз!
Go to the top of the page
  Insert nick Quick quote
+Quote Post
post Jul 20 2020, 15:03:57
Post #4

Азъ есн Хаос
**********
Group: Металариец
Posts: 1,491
Releases: 164
From: Россия Москва
On Forums: 13 years 6 months
Thanks: 1729 time(s)
Russian Federation


Музыкально красиво, жаль не по нашему, учитывая голос, было бы очень даже круто.
Go to the top of the page
  Insert nick Quick quote
+Quote Post
post Jul 20 2020, 15:07:21
Post #5

Правь статус, ####!111
**************
Group: Металариец
Posts: 47,043
Releases: 732
On Forums: 11 years 2 months
Thanks: 39701 time(s)
Russian Federation


ЦИТАТА(Phlebotomized @ Jul 20 2020, 18:03:57) *
жаль не по нашему,


Все правильно сделали (IMG:style_emoticons/default/bye.gif)


Go to the top of the page
  Insert nick Quick quote
+Quote Post
post Jul 20 2020, 16:22:32
Post #6

За Русь в метро взорвусь
**************
Group: Металариец
Posts: 2,902
Releases: 2
From: Yaroslavl
On Forums: 3 years 10 months
Thanks: 1816 time(s)
Northern Mariana Islands


QUOTE(vosmidesijatye @ Jul 20 2020, 19:07:21) *
Все правильно сделали (IMG:style_emoticons/default/bye.gif)
По-вашему это была бы очередная недоАрия или какой-нибудь ЕгорЛетов (IMG:style_emoticons/default/22.gif)
Go to the top of the page
  Insert nick Quick quote
+Quote Post

Reply to this topicStart new topic
1 User(s) are reading this topic (1 Guests and 0 Anonymous Users)
0 Members:

 



- Lo-Fi Version Support form
Copyrights and abuse reports form
Time is now: 11th August 2020 - 16:12:34