Welcome Guest ( Log In | Register )

> 

Здесь релизы с живыми прямыми ссылками на lossless

> Gernotshagen - Ode Naturae (2020), Epic/Pagan Metal
post Jul 23 2020, 16:16:42
Post #1

Правь статус, ####!111
**************
Group: Металариец
Posts: 22,671
Releases: 15764
From: Г.Харьков
On Forums: 8 years 3 months
Thanks: 290370 time(s)
Unknown


(IMG:https://metalarea.org/images/audiocovers/2020_Jul/acov_tid340091_thumb.jpg)

*Artist: Gernotshagen
*Album: Ode Naturae
*Year: 2020
*Genre: Epic/Pagan Metal
*Country: Germany (IMG:https://metalarea.org/forum/style_images/flags/Germany.png)
*Format: mp3@CBR320kbps
*Size: 154MB

Tracklist:
01. Erwachen 02:40
02. Eibengang 08:23
03. Eisenwald 05:09
04. Blut für die Meute 08:10
05. Fahle Wege 07:18
06. Zyklus Tod 09:07
07. Wildnis 08:28
08. Transzendenz 17:48
******************************
Total playing time: 1:07:03




Extended info
Murry Bass (1999-present)
Daimonicon Guitars (1999-present)
Askan Vocals (1999-present)
Sebastian Jung Keyboards (2000-present)
Marcus Röll Drums (2011-present)
See also: BlutEck, ex-Firtan (live), ex-Eïs (live)
Roman Senschuries Guitars (2018-present)
See also: Vrankenvorde, ex-Helritt, ex-Menhir, ex-Surturs Lohe, ex-XIV Dark Centuries, ex-Aske, ex-Tumulus



Technical info
(IMG:https://metalarea.org/images/spectrogram/2020_Jul/7d324cc3e9dcdd750db9879b514202e1.png)
input File: 04 - Blut für die Meute.mp3
Channels : 2
Sample Rate : 44100
Precision : 16-bit
Duration : 00:08:10.35 = 21624347 samples = 36776.1 CDDA sectors
File Size : 19.7M
Bit Rate : 322k
Sample Encoding: MPEG audio (layer I, II or III)
Comments :
Title=Blut für die Meute
Artist=Gernotshagen
Album=Ode Naturae
Tracknumber=4
Year=2020-07-24
Genre=Rock
Discnumber=1



Register


Go to the top of the page
  Insert nick Quick quote
+Quote Post
 
Start new topic
Replies (1 - 2)
post Jul 24 2020, 00:18:15
Post #2

Шесть Литров
******
Group: Металариец
Posts: 568
Releases: 26
On Forums: 11 years 2 months
Thanks: 562 time(s)
Chile


Thanks (IMG:style_emoticons/default/dwarf-1.gif)
Go to the top of the page
  Insert nick Quick quote
+Quote Post
post Jul 24 2020, 01:01:18
Post #3

Правь статус, ####!111
**************
Group: Металариец
Posts: 22,671
Releases: 15764
From: Г.Харьков
On Forums: 8 years 3 months
Thanks: 290370 time(s)
Unknown


FLAC (Tracks) 434 mb
Register


Go to the top of the page
  Insert nick Quick quote
+Quote Post

Reply to this topicStart new topic
1 User(s) are reading this topic (1 Guests and 0 Anonymous Users)
0 Members:

 



- Lo-Fi Version Support form
Copyrights and abuse reports form
Time is now: 11th August 2020 - 16:14:35