Welcome Guest ( Log In | Register )

> И неформату есть предел.

Рэп/хип-хоп/шансон/поп удаляются. Для них есть свои порталы.

> Deep Mountains - 平衡世界的意志1/Will Of A Balanced World Volume I (2019), Post-Rock/Shoegaze (D5)
post Jul 27 2020, 11:08:05
Post #1

Четыре Литра
****
Group: Металариец
Posts: 356
Releases: 128
From: Helvetia
On Forums: 7 years 6 months
Thanks: 2478 time(s)
Switzerland


(IMG:https://metalarea.org/images/audiocovers/2020_Jul/acov_tid340179_thumb.jpg)

*Artist: Deep Mountains
*Album: 平衡世界的意志1/Will Of A Balanced World Volume I
*Year: 2019
*Genre: Post-Rock/Shoegaze
*Country: China (IMG:https://metalarea.org/forum/style_images/flags/China.png)
*Format: mp3@CBR320kbps
*Size: 116MB

Tracklist:
1. 后腰之王 / King of Hot Rock 06:02
2. 刺破地平线 2019 / Penetrate the Horizon 2019 08:16
3. 昨日重重 / Yesterday Story 05:22
4. 山海经 / The Classic of Mountains and Seas 07:42
5. 彩虹曲 / Rainbow 03:58
6. 泰安199X / Tai’an in the 1990's 05:49
7. 直到世界将你忘记 / Until the World No Longer Remembers 05:02
8. 胖次之歌 / Solo from Leo's Dog 00:48
9. 朋克万万岁 / Long Live Punk 07:42
******************************
Total playing time: 50:41




Technical info
(IMG:https://metalarea.org/images/spectrogram/2020_Jul/552baf6019361f1881b981b978ab5ceb.png)
Input File: 03 - 昨日重重 Yesterday Story.mp3
Channels : 2
Sample Rate : 44100
Precision : 16-bit
Duration : 00:05:23.05 = 14246549 samples = 24228.8 CDDA sectors
File Size : 12.9M
Bit Rate : 320k
Sample Encoding: MPEG audio (layer I, II or III)
Comments :
Title=昨日重重 | Yesterday Story
Artist=Deep Mountains (深山)
Album=Will of a Balanced World Volume I (平衡世界的意志1)
Tracknumber=3
Year=2019
Genre=Rock



Register


Go to the top of the page
  Insert nick Quick quote
+Quote Post
 
Start new topic
Replies (1 - 1)
post Jul 27 2020, 20:06:25
Post #2

####!111
**************
Group: Металариец
Posts: 4,101
Releases: 127
From: The Mountain Of DOOM
On Forums: 12 years 9 months
Thanks: 5626 time(s)
Russian Federation


Опять вокалист всё портит.
Go to the top of the page
  Insert nick Quick quote
+Quote Post

Reply to this topicStart new topic
1 User(s) are reading this topic (1 Guests and 0 Anonymous Users)
0 Members:

 



- Lo-Fi Version Support form
Copyrights and abuse reports form
Time is now: 5th August 2020 - 12:33:24