Welcome Guest ( Log In | Register )

> И неформату есть предел.

Рэп/хип-хоп/шансон/поп удаляются. Для них есть свои порталы.

 
Reply to this topicStart new topic
> Deep Mountains - 平衡世界的意志2 | Will Of A Balanced World Volume Ii (2019), Post-Rock/Shoegaze (D5)
post Jul 27 2020, 11:10:20
Post #1

Четыре Литра
****
Group: Металариец
Posts: 356
Releases: 128
From: Helvetia
On Forums: 7 years 6 months
Thanks: 2478 time(s)
Switzerland


(IMG:https://metalarea.org/images/audiocovers/2020_Jul/acov_tid340180_thumb.jpg)

*Artist: Deep Mountains
*Album: 平衡世界的意志2 | Will Of A Balanced World Volume Ii
*Year: 2019
*Genre: Post-Rock/Shoegaze
*Country: China (IMG:https://metalarea.org/forum/style_images/flags/China.png)
*Format: mp3@CBR320kbps
*Size: 105MB

Tracklist:
1. 我无法眼看着世界坠落却无动于衷 / I Can't Be Indifferent When I See the World Falling 04:20
2. 伟大时代的晚上 / Dark Side of a Great Epoch 06:12
3. 酒狂 / Methomania 08:26
4. 祖国之歌 / My Motherland 00:04
5. 秋水长天 / Autumn Stream and Vast Sky 07:47
6. 不要为我的死而悲伤 / Don't Grieve for My Death 05:49
7. 送别2018 / Farewell 2018 03:15
8. 一半火焰一半海水 / Half Ocean, Half Blaze 10:40
******************************
Total playing time: 46:33




Technical info
(IMG:https://metalarea.org/images/spectrogram/2020_Jul/d0ef34284bc00463fc280d862b1fca25.png)
Input File: 03 - 酒狂 Methomania.mp3
Channels : 2
Sample Rate : 44100
Precision : 16-bit
Duration : 00:08:26.52 = 22337488 samples = 37988.9 CDDA sectors
File Size : 20.3M
Bit Rate : 320k
Sample Encoding: MPEG audio (layer I, II or III)
Comments :
Title=酒狂 | Methomania
Artist=Deep Mountains (深山)
Album=Will of a Balanced World Volume Ⅱ (平衡世界的意志2)
Tracknumber=3
Year=2019
Genre=Rock



Register


Go to the top of the page
  Insert nick Quick quote
+Quote Post

Reply to this topicStart new topic
1 User(s) are reading this topic (1 Guests and 0 Anonymous Users)
0 Members:

 



- Lo-Fi Version Support form
Copyrights and abuse reports form
Time is now: 5th August 2020 - 11:54:43