Welcome Guest ( Log In | Register )

> 

Здесь релизы с живыми прямыми ссылками на lossless

> Folklorica - Warhero (2020), Melodic Death/Doom Metal
post Jul 27 2020, 18:34:57
Post #1

MDM-Thrash Metal
**************
Group: Металариец
Posts: 9,706
Releases: 959
From: Одесса
On Forums: 13 years 1 day
Thanks: 24529 time(s)
Ukraine


(IMG:http://metalarea.org/images/audiocovers/2020_Jul/acov_tid340190_thumb.jpg)

*Artist: Folklorica
*Album: Warhero
*Year: 2020
*Genre: Melodic Death/Doom Metal
*Country: Cuba (IMG:http://metalarea.org/forum/style_images/flags/Cuba.png)
*Format: mp3@CBR320kbps
*Size: 110MB

Tracklist:
01. My doom
02. Towards a Godless Heaven
03. Nostalgia
04. Warhero
05. Seduction Maze
06. Awakening
07. Through Dreadful Nightmares
08. Inside Me
09. Progression
10. Talking Black
******************************
Total playing time: 46:58


(IMG:http://metalarea.org/images/youtube.png)

Technical info
(IMG:http://metalarea.org/images/spectrogram/2020_Jul/4f7e7cd4cb21c51215d730b68fdaba5c.png)
Input File: folklorica - Warhero - 02 Towards a Godless Heaven.mp3
Channels : 2
Sample Rate : 44100
Precision : 16-bit
Duration : 00:04:35.32 = 12141568 samples = 20648.9 CDDA sectors
File Size : 11.1M
Bit Rate : 323k
Sample Encoding: MPEG audio (layer I, II or III)
Comments :
Title=Towards a Godless Heaven
Artist=folklorica
Album=Warhero
Tracknumber=2
Year=2020



Register


Go to the top of the page
  Insert nick Quick quote
+Quote Post
 
Start new topic
Replies (1 - 6)
post Jul 28 2020, 09:44:37
Post #2

хаос и порядок
****
Group: Металариец
Posts: 308
Releases: 0
From: Запорожье
On Forums: 10 years 3 months
Thanks: 112 time(s)
Ukraine


Тёплый и пальмовый мелодик (обложка в тему) венигрет из дума, дэза и просто метала. Дум, правда, закончился на середине альбома. Так-то довольно ярко и на удивление целостно, но на любителя.
Go to the top of the page
  Insert nick Quick quote
+Quote Post
post Jul 28 2020, 10:05:42
Post #3

Ёлд ХеллоВяйне
Group Icon
Group: V.I.P
Posts: 30,145
Releases: 137
From: Питер
On Forums: 13 years 9 months
Thanks: 17991 time(s)
Russian Federation


Тёплый ламповый олдскул.


Thanks:
Go to the top of the page
  Insert nick Quick quote
+Quote Post
post Jul 28 2020, 16:11:50
Post #4

Два Литра
**
Group: Завсегдатай
Posts: 126
Releases: 0
On Forums: 2 years 6 months
Thanks: 42 time(s)
Belarus


Сыро и не интересно.
Go to the top of the page
  Insert nick Quick quote
+Quote Post
post Jul 28 2020, 17:51:09
Post #5

Ёлд ХеллоВяйне
Group Icon
Group: V.I.P
Posts: 30,145
Releases: 137
From: Питер
On Forums: 13 years 9 months
Thanks: 17991 time(s)
Russian Federation


QUOTE(GRAF @ 28th July 2020 - 18:11:50) *
Сыро и не интересно.


Меткая характеристика всех твоих постов.
Go to the top of the page
  Insert nick Quick quote
+Quote Post
post Jul 29 2020, 16:52:31
Post #6

Маньяк
**********
Group: Металариец
Posts: 1,377
Releases: 234
On Forums: 11 years 8 months
Thanks: 4804 time(s)
Russian Federation


FLAC tracks
Register


Thanks:
Go to the top of the page
  Insert nick Quick quote
+Quote Post
post Aug 3 2020, 15:32:07
Post #7

Ъ
**************
Group: Металариец
Posts: 10,177
Releases: 9
On Forums: 11 years 7 months
Thanks: 2052 time(s)
Sweden


Третьесорт.
Go to the top of the page
  Insert nick Quick quote
+Quote Post

Reply to this topicStart new topic
1 User(s) are reading this topic (1 Guests and 0 Anonymous Users)
0 Members:

 



- Lo-Fi Version Support form
Copyrights and abuse reports form
Time is now: 11th August 2020 - 16:28:59