Welcome Guest ( Log In | Register )

> Eisenkult - ...Gedenken Wir Der Finsternis (2020), Black Metal
post Jul 29 2020, 12:03:51
Post #1

Правь статус, ####!111
**************
Group: Металариец
Posts: 26,289
Releases: 18919
From: Г.Харьков
On Forums: 9 years 1 month
Thanks: 376984 time(s)
Unknown


(IMG:https://metalarea.org/images/audiocovers/2020_Jul/acov_tid340215_thumb.jpg)

*Artist: Eisenkult
*Album: ...Gedenken Wir Der Finsternis
*Year: 2020
*Genre: Black Metal
*Country: Germany (IMG:https://metalarea.org/forum/style_images/flags/Germany.png)
*Format: mp3@CBR320kbps
*Size: 63MB

Tracklist:
1. Intro 02:51 instrumental
2. Stahlross 02:08
3. Deprecatio 04:38
4. Interlude 02:09 instrumental
5. Gedenken wir der Finsternis 05:40
6. Auf schwarzen Schwingen 03:04
7. Ein endloses Nichts 04:02
8. Outro 03:12
******************************
Total playing time: 27:44



Extended info
P. Unknown
See also: Mavorim, ex-Trematoda
Cernunnos Unknown
See also: Hohenstein, Kryptotype, Meuchelmord, Pesthammer, ex-Nebel über den Urnenfeldern, ex-Agonie
Valfor Unknown
See also: Asenheim, Slagmark, Totenwache


Technical info
(IMG:https://metalarea.org/images/spectrogram/2020_Jul/fc7667afa2cae843d866c18f66363551.png)
Input File: 05. Gedenken wir der Finsternis.mp3
Channels : 2
Sample Rate : 44100
Precision : 16-bit
Duration : 00:05:41.91 = 15078187 samples = 25643.2 CDDA sectors
File Size : 13.7M
Bit Rate : 320k
Sample Encoding: MPEG audio (layer I, II or III)
Comments :
Title=...Gedenken Wir Der Finsternis
Artist=Eisenkult
Album=...gedenken wir der Finsternis
Tracknumber=5
Year=2020
Genre=Black Metal



Register


Go to the top of the page
  Insert nick Quick quote
+Quote Post
 
Start new topic
Replies (1 - 1)
post Jun 11 2021, 10:53:03
Post #2

0%Tolerance
**********
Group: Металариец
Posts: 1,027
Releases: 0
On Forums: 8 years 8 months
Thanks: 183 time(s)
Unknown


Дебютник (этот) более эпично-аутентичный, чем недавно вышедший сравнительно попсовый крайний альбом стаффа. Второй и восьмой треки (на контрасте) понравились больше остальных.
Go to the top of the page
  Insert nick Quick quote
+Quote Post

Reply to this topicStart new topic
2 User(s) are reading this topic (2 Guests and 0 Anonymous Users)
0 Members:

 



- Lo-Fi Version Support form
Copyrights and abuse reports form
Time is now: 14th June 2021 - 21:43:37